<?xml version="1.0" standalone="no"?>
<!DOCTYPE svg PUBLIC "-//W3C//DTD SVG 1.1//EN" "http://www.w3.org/Graphics/SVG/1.1/DTD/svg11.dtd" >
<svg xmlns="http://www.w3.org/2000/svg" xmlns:xlink="http://www.w3.org/1999/xlink" version="1.1">
<metadata>
Created by FontForge 20161013 at Mon Feb  6 17:20:14 2017
 By ,,,
Copyright (c)2016, Illuma designed by Alfredo Marco Pradil (ammpradil@gmail.com). Illuma is a trademark of Alfredo Marco Pradil.
</metadata>
<defs>
<font id="Illuma-BlackSemiExpanded" horiz-adv-x="1321" >
  <font-face 
    font-family="Illuma Black SemiExpanded"
    font-weight="900"
    font-stretch="semi-expanded"
    units-per-em="2048"
    panose-1="0 0 10 5 0 0 0 0 0 0"
    ascent="1638"
    descent="-410"
    x-height="1049"
    cap-height="1413"
    bbox="-1595 -922 3252 2141"
    underline-thickness="82"
    underline-position="-264"
    unicode-range="U+0020-FB02"
  />
<missing-glyph horiz-adv-x="1073" 
d="M127 0v999h819v-999h-819zM229 102h615v795h-615v-795z" />
    <glyph glyph-name="fi" unicode="fi" horiz-adv-x="1384" 
d="M1260 1049v-1049h-392v836h-309v-836h-387v836h-160v213h164v71q0 137 86.5 225.5t255.5 88.5q63 0 225 -21v-242q-60 11 -100 11q-62 0 -78 -26.5t-16 -106.5h711zM868 1413h392v-252h-392v252z" />
    <glyph glyph-name="fl" unicode="fl" horiz-adv-x="1423" 
d="M176 1120q0 137 86.5 225.5t255.5 88.5q63 0 225 -21v-242q-60 11 -100 11q-46 0 -65 -30t-19 -103h184v-213h-184v-836h-383v836h-164v213h164v71zM1318 231q30 0 101 11v-242q-156 -20 -225 -20q-87 0 -153.5 24.5t-107 68.5t-61 99.5t-20.5 120.5v1120h383v-1048
q0 -74 18.5 -104t64.5 -30z" />
    <glyph glyph-name="F_T.liga" unicode="FT" horiz-adv-x="2261" 
d="M2230 1413v-332h-393v-1081h-397v1081h-883v-258h584v-311h-584v-512h-397v1413h2070z" />
    <glyph glyph-name="F_W.liga" unicode="FW" horiz-adv-x="3291" 
d="M2841 1413h411l-268 -1413h-580l-170 946l-161 -946h-582l-204 1081h-730v-258h543v-311h-543v-512h-397v1413h1476l170 -1089h17l200 1089h433l200 -1089h15z" />
    <glyph glyph-name="T_W.liga" unicode="TW" horiz-adv-x="3209" 
d="M2759 1413h411l-268 -1413h-580l-170 946l-161 -946h-582l-204 1081h-388v-1081h-397v1081h-389v332h1523l170 -1089h17l201 1089h432l200 -1089h15z" />
    <glyph glyph-name="T_h.liga" unicode="Th" horiz-adv-x="2404" 
d="M420 0v1081h-389v332h1566v-481h5q49 65 139 101t192 36q177 0 273 -104t96 -265v-700h-385v586q0 184 -145 184q-85 0 -130 -49t-45 -139v-582h-387v1081h-393v-1081h-397z" />
    <glyph glyph-name="f_f" unicode="ff" horiz-adv-x="1440" 
d="M1339 1182q-62 0 -78 -26.5t-16 -106.5h195v-213h-185v-836h-387v836h-309v-836h-387v836h-160v213h164v71q0 137 86.5 225.5t255.5 88.5q63 0 225 -21v-242q-60 11 -100 11q-62 0 -78 -26.5t-16 -106.5h323v71q0 137 86.5 225.5t255.5 88.5q62 0 226 -21v-242
q-61 11 -101 11z" />
    <glyph glyph-name="f_f_i" unicode="ffi" horiz-adv-x="2083" 
d="M1958 1049v-1049h-391v836h-312v-836h-387v836h-309v-836h-387v836h-160v213h164v71q0 137 86.5 225.5t255.5 88.5q63 0 225 -21v-242q-60 11 -100 11q-62 0 -78 -26.5t-16 -106.5h323v71q0 137 86.5 225.5t255.5 88.5q62 0 226 -21v-242q-61 11 -101 11q-62 0 -78 -26.5
t-16 -106.5h713zM1567 1413h391v-252h-391v252z" />
    <glyph glyph-name="f_r.liga" unicode="fr" horiz-adv-x="1593" 
d="M1239 850q55 68 146 129t194 90v-336q-107 -21 -199.5 -64t-124.5 -87v-582h-387v836h-309v-836h-387v836h-160v213h164v71q0 137 86.5 225.5t255.5 88.5q63 0 225 -21v-242q-60 11 -100 11q-62 0 -78 -26.5t-16 -106.5h690v-199z" />
    <glyph glyph-name="f_u.liga" unicode="fu" horiz-adv-x="2062" 
d="M1550 1049h385v-1049h-376v117h-17q-48 -74 -136 -111t-194 -37q-117 0 -202 53t-125.5 138t-40.5 190v486h-285v-836h-387v836h-160v213h164v71q0 137 86.5 225.5t255.5 88.5q63 0 225 -21v-242q-60 11 -100 11q-62 0 -78 -26.5t-16 -106.5h682v-592q0 -75 44.5 -120.5
t121.5 -45.5q153 0 153 168v590z" />
    <glyph glyph-name="f_y.liga" unicode="fy" horiz-adv-x="1962" 
d="M1561 1049h413l-456 -1141q-66 -162 -165.5 -223.5t-265.5 -61.5q-66 0 -176 10v277q81 -12 140 -12q63 0 95 19.5t32 66.5q0 26 -15 63l-309 789h-295v-836h-387v836h-160v213h164v71q0 137 86.5 225.5t255.5 88.5q63 0 225 -21v-242q-60 11 -100 11q-62 0 -78 -26.5
t-16 -106.5h633l176 -611h20z" />
    <glyph glyph-name="t_w.liga" unicode="tw" horiz-adv-x="2607" 
d="M2198 1049h407l-301 -1049h-494l-131 549l-125 -557h-493l-237 844h-281v-471q0 -75 18 -104.5t64 -29.5q29 0 100 11v-242q-156 -20 -225 -20q-87 0 -153.5 24.5t-107 68.5t-61 99.5t-20.5 120.5v543h-138v213h138v200l385 82v-282h628l156 -715l180 715h351l178 -721z
" />
    <glyph glyph-name="t_y.liga" unicode="ty" horiz-adv-x="1948" 
d="M1546 1049h414l-457 -1141q-65 -162 -164.5 -223.5t-265.5 -61.5q-66 0 -176 10v277q79 -12 139 -12q64 0 95.5 19.5t31.5 66.5q0 25 -14 63l-309 789h-297v-471q0 -75 18 -104.5t64 -29.5q29 0 100 11v-242q-156 -20 -225 -20q-87 0 -153.5 24.5t-107 68.5t-61 99.5
t-20.5 120.5v543h-138v213h138v200l385 82v-282h624l176 -611h21z" />
    <glyph glyph-name=".notdef" horiz-adv-x="1073" 
d="M127 0v999h819v-999h-819zM229 102h615v795h-615v-795z" />
    <glyph glyph-name=".null" horiz-adv-x="0" 
 />
    <glyph glyph-name="nonmarkingreturn" horiz-adv-x="682" 
 />
    <glyph glyph-name="space" unicode=" " horiz-adv-x="502" 
 />
    <glyph glyph-name="exclam" unicode="!" horiz-adv-x="688" 
d="M201 494l-29 919h344l-29 -919h-286zM158 0v326h372v-326h-372z" />
    <glyph glyph-name="quotedbl" unicode="&#x22;" horiz-adv-x="1147" 
d="M176 817v596h307v-596h-307zM651 817v596h320v-596h-320z" />
    <glyph glyph-name="numbersign" unicode="#" horiz-adv-x="1360" 
d="M188 0l78 385h-190v242h241l35 178h-198v235h247l78 373h250l-76 -358h191l76 358h247l-73 -369h190v-239h-240l-34 -178h198v-238h-247l-80 -389h-252l80 377h-191l-78 -377h-252zM567 627h191l35 178h-191z" />
    <glyph glyph-name="dollar" unicode="$" horiz-adv-x="1296" 
d="M1205 457q0 -179 -96.5 -294t-266.5 -158v-185h-328v166q-180 19 -370 84v391h8q116 -63 248.5 -103.5t228.5 -40.5q86 0 137 33t51 88q0 45 -38.5 75.5t-99.5 49t-135 36.5t-148 46.5t-135 70.5t-99.5 117.5t-38.5 178.5q0 177 107 280t284 132v128h328v-136
q142 -26 272 -87v-352h-10q-106 63 -236 107t-221 44q-61 0 -98 -21.5t-37 -59.5q0 -30 23.5 -52t64 -37t92.5 -28t109.5 -29.5t114.5 -38t109 -56t92.5 -79.5t64 -114.5t23.5 -155.5z" />
    <glyph glyph-name="percent" unicode="%" horiz-adv-x="1712" 
d="M391 698q-73 0 -131.5 26t-94 65t-58.5 90t-32 96.5t-9 87.5q0 43 8.5 89t32 98t58 92.5t93 67t131.5 26.5q86 0 152 -36t102.5 -94t54 -120t17.5 -125q0 -49 -10 -97t-34.5 -97t-60.5 -86t-92.5 -60t-126.5 -23zM389 0l696 1413h263l-699 -1413h-260zM391 909
q103 0 103 156q0 160 -105 160q-102 0 -102 -160q0 -156 104 -156zM1323 -23q-73 0 -131.5 26t-94 65t-59 90t-32.5 96.5t-9 87.5q0 43 8.5 89t32 98t58.5 92.5t93.5 67t131.5 26.5q86 0 152 -36t102.5 -94t54 -120t17.5 -125q0 -49 -10 -97t-34.5 -97t-60.5 -86t-92.5 -60
t-126.5 -23zM1323 188q102 0 102 156q0 160 -104 160q-102 0 -102 -160q0 -156 104 -156z" />
    <glyph glyph-name="ampersand" unicode="&#x26;" horiz-adv-x="1579" 
d="M1518 0h-396q-37 53 -107 127q-165 -156 -417 -156q-104 0 -197.5 25.5t-168.5 74.5t-119.5 129.5t-44.5 182.5q0 152 96.5 254t236.5 125q-90 52 -140 122.5t-50 180.5q0 98 42 172.5t111.5 116.5t147.5 62t162 20q69 0 134.5 -13.5t125.5 -43t105 -72t71.5 -105.5
t26.5 -139q0 -112 -60 -188.5t-227 -157.5l142 -127q47 60 83 100t84 81.5t99 62t106 20.5q29 0 74 -10v-369q-38 17 -72 17q-45 0 -81 -27.5t-75 -82.5q192 -194 308 -382zM680 1182q-54 0 -90.5 -34.5t-36.5 -78.5q0 -26 2.5 -43t12.5 -39.5t32.5 -44t58.5 -45.5l5 -2
q86 57 113.5 92.5t27.5 79.5q0 46 -34 80.5t-91 34.5zM459 416q0 -70 43.5 -105t111.5 -35q82 0 168 71l-221 198q-41 -13 -71.5 -46t-30.5 -83z" />
    <glyph glyph-name="quotesingle" unicode="'" horiz-adv-x="659" 
d="M176 846v596h307v-596h-307z" />
    <glyph glyph-name="parenleft" unicode="(" horiz-adv-x="705" 
d="M342 -313q-114 140 -191 425t-77 584q0 288 73 556.5t193 428.5h358q-149 -206 -226 -461t-77 -540q0 -287 78 -540.5t229 -452.5h-360z" />
    <glyph glyph-name="parenright" unicode=")" horiz-adv-x="705" 
d="M2 -313q151 198 229 451.5t78 541.5q0 585 -303 1001h359q120 -161 193 -429.5t73 -555.5q0 -299 -77.5 -584t-191.5 -425h-360z" />
    <glyph glyph-name="asterisk" unicode="*" horiz-adv-x="815" 
d="M322 803l57 231q3 16 -4.5 20t-18.5 -7l-166 -166l-92 149l234 66q9 3 12 7.5t0 9t-12 7.5l-234 66l92 151l166 -168q11 -11 18.5 -7t4.5 20l-57 231h174l-62 -231q-3 -14 4.5 -18.5t18.5 5.5l170 168l88 -151l-234 -66q-9 -3 -12 -7.5t0 -9t12 -7.5l234 -66l-88 -149
l-170 166q-11 10 -18.5 5.5t-4.5 -18.5l62 -231h-174z" />
    <glyph glyph-name="plus" unicode="+" horiz-adv-x="1196" 
d="M455 0v373h-373v291h373v372h286v-372h373v-291h-373v-373h-286z" />
    <glyph glyph-name="comma" unicode="," horiz-adv-x="694" 
d="M164 -365v148q30 0 55 3.5t43.5 9t32.5 16t23 19.5t15 24t9 26t4 29.5t1 29t-0.5 31t-0.5 29.5h-184v365h387v-365q0 -105 -26 -177t-78 -112.5t-119.5 -58t-161.5 -17.5z" />
    <glyph glyph-name="hyphen" unicode="-" horiz-adv-x="1063" 
d="M123 373v291h817v-291h-817z" />
    <glyph glyph-name="period" unicode="." horiz-adv-x="737" 
d="M174 0v367h389v-367h-389z" />
    <glyph glyph-name="slash" unicode="/" horiz-adv-x="938" 
d="M-29 -156l660 1565h336l-658 -1565h-338z" />
    <glyph glyph-name="zero" unicode="0" horiz-adv-x="1229" 
d="M610 -20q-140 0 -246.5 53.5t-172.5 151t-99 229.5t-33 295q0 130 20.5 239.5t63.5 200t107.5 154t155.5 98.5t204 35q141 0 248.5 -53.5t175 -151t101.5 -229t34 -293.5q0 -163 -33.5 -295t-101 -229.5t-175.5 -151t-249 -53.5zM610 285q91 0 123.5 93.5t32.5 330.5
q0 234 -33 325.5t-123 91.5q-94 0 -126.5 -90.5t-32.5 -326.5q0 -240 33 -332t126 -92z" />
    <glyph glyph-name="one" unicode="1" horiz-adv-x="1229" 
d="M156 0v332h297v739l-297 -215v356l301 201h385v-1081h297v-332h-983z" />
    <glyph glyph-name="two" unicode="2" horiz-adv-x="1229" 
d="M1143 1020q0 -108 -42.5 -204.5t-125.5 -181t-189.5 -157t-250.5 -145.5h598v-332h-1037v385q656 364 656 590q0 117 -164 117q-107 0 -250 -45.5t-242 -102.5v373q116 53 254 85t268 32q86 0 162 -14.5t143 -46t115.5 -79t76.5 -117.5t28 -157z" />
    <glyph glyph-name="three" unicode="3" horiz-adv-x="1229" 
d="M580 -20q-263 0 -492 81v369h15q200 -127 432 -127q253 0 253 152q0 69 -62.5 98t-223.5 29h-123v288h127q104 0 161 13t76 36t19 64q0 70 -52.5 100.5t-162.5 30.5q-217 0 -441 -115h-18v351q272 75 496 75q251 0 397.5 -100t146.5 -295q0 -227 -222 -294
q270 -77 270 -335q0 -136 -75.5 -232t-208.5 -142.5t-312 -46.5z" />
    <glyph glyph-name="four" unicode="4" horiz-adv-x="1229" 
d="M1171 580v-314h-143v-266h-369v266h-620v318l590 829h399v-833h143zM330 580h329v450z" />
    <glyph glyph-name="five" unicode="5" horiz-adv-x="1229" 
d="M621 924q281 0 419 -93.5t138 -312.5q0 -169 -79 -292t-213 -184.5t-306 -61.5q-203 0 -457 81v369h14q97 -61 213.5 -95t204.5 -34q98 0 159.5 43.5t61.5 128.5q0 95 -79.5 145t-223.5 50q-106 0 -350 -33v778h991v-332h-645v-163q80 6 152 6z" />
    <glyph glyph-name="six" unicode="6" horiz-adv-x="1229" 
d="M705 952q98 0 183 -28t151 -82t103.5 -141t37.5 -197q0 -159 -76 -280t-200.5 -182.5t-276.5 -61.5q-254 0 -415 169.5t-161 434.5q0 108 30.5 216t77 194.5t110.5 169.5t121.5 140.5t119.5 108.5h489v-12q-87 -54 -147 -97t-130 -104t-124.5 -133t-92.5 -155
q85 40 200 40zM608 295q83 0 136 56t53 161q0 101 -52 154t-137 53q-83 0 -131.5 -52.5t-48.5 -156.5t49.5 -159.5t130.5 -55.5z" />
    <glyph glyph-name="seven" unicode="7" horiz-adv-x="1229" 
d="M274 0q8 138 37 274t82.5 280.5t146 280t214.5 238.5v8h-670v332h1065v-309q-100 -88 -174 -175.5t-121.5 -183t-76.5 -172t-45.5 -188t-22.5 -183.5t-13 -202h-422z" />
    <glyph glyph-name="eight" unicode="8" horiz-adv-x="1229" 
d="M923 757q123 -34 192 -130t69 -226q0 -196 -157.5 -308.5t-412.5 -112.5t-412 112.5t-157 308.5q0 130 69 226t192 130l-1 9q-96 24 -151.5 106t-55.5 183q0 162 138.5 270.5t384.5 108.5q124 0 223.5 -30t161.5 -82t94.5 -119t32.5 -144q0 -105 -56 -187t-153 -106z
M614 1153q-67 0 -111 -39.5t-44 -99.5t44 -100t111 -40q66 0 111 40t45 100t-45 99.5t-111 39.5zM614 301q81 0 130 47.5t49 120.5t-50 119.5t-129 46.5q-78 0 -128 -46.5t-50 -119.5t49 -120.5t129 -47.5z" />
    <glyph glyph-name="nine" unicode="9" horiz-adv-x="1229" 
d="M602 1434q254 0 415 -170t161 -435q0 -133 -44 -263.5t-117.5 -237t-145.5 -184.5t-152 -144h-490v12q87 54 147.5 97t130.5 104t124.5 133t92.5 155q-84 -40 -200 -40q-98 0 -183 28t-151 82t-103.5 141t-37.5 197q0 120 44 220t119.5 166t176 102.5t213.5 36.5z
M432 901q0 -101 52 -154t137 -53q83 0 131.5 52.5t48.5 156.5q0 105 -49.5 160t-130.5 55q-83 0 -136 -56t-53 -161z" />
    <glyph glyph-name="colon" unicode=":" horiz-adv-x="803" 
d="M180 688v387h447v-387h-447zM176 0v387h447v-387h-447z" />
    <glyph glyph-name="semicolon" unicode=";" horiz-adv-x="719" 
d="M170 682v367h387v-367h-387zM172 -365v148q30 0 55 3.5t43.5 9t32.5 16t23 19.5t15 24t9 26t4 29.5t1 29t-0.5 31t-0.5 29.5h-184v365h387v-365q0 -105 -25.5 -177t-77.5 -112.5t-120 -58t-162 -17.5z" />
    <glyph glyph-name="less" unicode="&#x3c;" horiz-adv-x="1378" 
d="M1235 78l-1202 596l1202 596v-340l-555 -256l555 -256v-340z" />
    <glyph glyph-name="equal" unicode="=" horiz-adv-x="1313" 
d="M190 618v314h932v-314h-932zM190 104v314h932v-314h-932z" />
    <glyph glyph-name="greater" unicode="&#x3e;" horiz-adv-x="1378" 
d="M143 78v340l555 256l-555 256v340l1203 -596z" />
    <glyph glyph-name="question" unicode="?" horiz-adv-x="1022" 
d="M258 498v151q0 58 24 103t59.5 70t77.5 49.5t77.5 43.5t59.5 49.5t24 69.5q0 94 -138 94q-90 0 -195.5 -37.5t-187.5 -93.5v367q198 70 400 70q240 0 375 -107t135 -311q0 -77 -20 -135.5t-52.5 -92.5t-71 -58t-77.5 -39.5t-71.5 -30.5t-52.5 -37t-20 -52v-73h-346z
M244 0v326h372v-326h-372z" />
    <glyph glyph-name="at" unicode="@" horiz-adv-x="1718" 
d="M864 1298q219 0 396 -98t276.5 -270t99.5 -383q0 -225 -110.5 -357.5t-296.5 -132.5q-238 0 -262 219q-73 -153 -228 -153q-120 0 -196 91.5t-76 231.5q0 82 27.5 169t75 161t121 121t157.5 47q80 0 127 -40t60 -100l20 103h186q-15 -84 -32.5 -178t-26.5 -142
t-17.5 -98.5t-12 -81.5t-3.5 -57q0 -59 19.5 -83.5t68.5 -24.5q95 0 146 75.5t51 214.5q0 251 -158 410.5t-408 159.5q-252 0 -414.5 -162t-162.5 -408q0 -240 157 -391t404 -151q88 0 172 24v-213q-82 -16 -174 -16q-163 0 -304.5 55.5t-242 153t-158 236.5t-57.5 300
q0 218 100.5 393.5t278 275t397.5 99.5zM778 313q52 0 93.5 28.5t65 73.5t36 94t12.5 95q0 148 -121 148q-68 0 -117.5 -47.5t-70.5 -111t-21 -128.5q0 -18 2 -34.5t9.5 -39t20 -39t36 -28t55.5 -11.5z" />
    <glyph glyph-name="A" unicode="A" horiz-adv-x="1554" 
d="M1114 0l-78 254h-518l-78 -254h-430l504 1413h526l504 -1413h-430zM612 561h330l-160 522h-10z" />
    <glyph glyph-name="B" unicode="B" horiz-adv-x="1477" 
d="M160 0v1413h614q154 0 264 -25t176.5 -75t97.5 -118.5t31 -160.5q0 -105 -42 -176t-136 -115v-6q248 -60 248 -334q0 -98 -32.5 -171t-102 -126t-184.5 -79.5t-275 -26.5h-659zM557 860h274q83 0 120.5 29.5t37.5 87.5q0 119 -158 119h-274v-236zM557 336h287
q96 0 139 33.5t43 99.5q0 62 -41 89.5t-141 27.5h-287v-250z" />
    <glyph glyph-name="C" unicode="C" horiz-adv-x="1444" 
d="M815 -20q-122 0 -231.5 25.5t-205.5 82t-165.5 139t-109.5 202.5t-40 267t40 267.5t109.5 203t165.5 139t205.5 82t231.5 25.5q261 0 510 -108v-404h-8q-254 176 -494 176q-166 0 -268 -96.5t-102 -284.5t102 -284.5t268 -96.5q115 0 242.5 45.5t251.5 131.5h8v-404
q-246 -108 -510 -108z" />
    <glyph glyph-name="D" unicode="D" horiz-adv-x="1511" 
d="M160 0v1413h516q381 0 576.5 -187t195.5 -521q0 -338 -197 -521.5t-577 -183.5h-514zM557 328h115q188 0 286.5 96.5t98.5 286.5q0 183 -96 277.5t-289 94.5h-115v-755z" />
    <glyph glyph-name="E" unicode="E" horiz-adv-x="1372" 
d="M160 0v1413h1083v-332h-686v-217h645v-311h-645v-219h686v-334h-1083z" />
    <glyph glyph-name="F" unicode="F" horiz-adv-x="1317" 
d="M160 0v1413h1083v-332h-686v-258h645v-311h-645v-512h-397z" />
    <glyph glyph-name="G" unicode="G" horiz-adv-x="1464" 
d="M825 1077q-166 0 -266 -96.5t-100 -284.5q0 -189 99.5 -286t262.5 -97q52 0 115 11v376h389v-612q-246 -108 -510 -108q-122 0 -231.5 25.5t-205.5 82t-165.5 139t-109.5 202.5t-40 267t40 267.5t109.5 203t165.5 139t205.5 82t231.5 25.5q261 0 510 -108v-398h-18
q-247 170 -482 170z" />
    <glyph glyph-name="H" unicode="H" horiz-adv-x="1589" 
d="M1032 1413h398v-1413h-398v553h-475v-553h-397v1413h397v-549h475v549z" />
    <glyph glyph-name="I" unicode="I" horiz-adv-x="717" 
d="M160 0v1413h397v-1413h-397z" />
    <glyph glyph-name="J" unicode="J" horiz-adv-x="872" 
d="M262 -20q-170 0 -233 20v322l51 -6t61 -6.5t49 -2.5q24 0 34.5 0.5t30 3t28.5 8t22 17t18.5 28t10 42t4.5 59.5v948h397v-1026q0 -185 -126.5 -296t-346.5 -111z" />
    <glyph glyph-name="K" unicode="K" horiz-adv-x="1552" 
d="M1542 0h-495l-490 773v-773h-397v1413h397v-559l467 559h506l-551 -598z" />
    <glyph glyph-name="L" unicode="L" horiz-adv-x="1192" 
d="M160 0v1413h397v-1081h604v-332h-1001z" />
    <glyph glyph-name="M" unicode="M" horiz-adv-x="2093" 
d="M160 0v1413h557l325 -924l326 924h565v-1413h-397v918h-14l-316 -918h-327l-312 918h-16v-918h-391z" />
    <glyph glyph-name="N" unicode="N" horiz-adv-x="1661" 
d="M160 0v1413h385l551 -805h8v805h397v-1413h-389l-543 791h-12v-791h-397z" />
    <glyph glyph-name="O" unicode="O" horiz-adv-x="1577" 
d="M786 -20q-332 0 -526 196.5t-194 530.5t194 530.5t526 196.5t529.5 -197t197.5 -530t-197 -530t-530 -197zM788 311q146 0 232 105t86 291q0 185 -86 290t-232 105q-145 0 -229 -104.5t-84 -290.5t84 -291t229 -105z" />
    <glyph glyph-name="P" unicode="P" horiz-adv-x="1395" 
d="M160 0v1413h616q157 0 270 -33t179 -96.5t96.5 -147.5t30.5 -194q0 -475 -596 -475h-201v-467h-395zM555 782h199q111 0 157.5 42.5t46.5 119.5q0 81 -46 116.5t-158 35.5h-199v-314z" />
    <glyph glyph-name="Q" unicode="Q" horiz-adv-x="1577" 
d="M1202 -102q139 0 213 49h19v-285q-135 -43 -256 -43q-198 0 -329.5 100.5t-151.5 264.5q-294 26 -462.5 219t-168.5 504q0 334 194 530.5t526 196.5t529.5 -197t197.5 -530q0 -286 -147.5 -474t-405.5 -237q21 -48 88.5 -73t153.5 -25zM475 707q0 -186 84 -291t229 -105
q146 0 232 105t86 291q0 185 -86 290t-232 105q-145 0 -229 -104.5t-84 -290.5z" />
    <glyph glyph-name="R" unicode="R" horiz-adv-x="1485" 
d="M1473 -2h-455l-288 510h-175v-508h-395v1413h575q311 0 464 -124.5t153 -346.5q0 -284 -248 -380zM555 1096v-314h178q125 0 175 42t50 120q0 82 -49.5 117t-175.5 35h-178z" />
    <glyph glyph-name="S" unicode="S" horiz-adv-x="1243" 
d="M602 -20q-229 0 -487 90v391h8q116 -63 248.5 -103.5t228.5 -40.5q86 0 137 33t51 88q0 45 -38.5 75.5t-99.5 49t-135 36.5t-148 46.5t-135 70.5t-99.5 117.5t-38.5 178.5q0 108 42 190.5t115.5 132.5t166.5 74.5t203 24.5q243 0 464 -105v-352h-10q-106 63 -236 107
t-221 44q-61 0 -98 -21.5t-37 -59.5q0 -30 23.5 -52t64 -37t92.5 -28t109.5 -29.5t114.5 -38t109 -56t92.5 -79.5t64 -114.5t23.5 -155.5q0 -155 -75 -264t-202.5 -161t-296.5 -52z" />
    <glyph glyph-name="T" unicode="T" horiz-adv-x="1241" 
d="M420 0v1081h-389v332h1179v-332h-393v-1081h-397z" />
    <glyph glyph-name="U" unicode="U" horiz-adv-x="1477" 
d="M733 -20q-309 0 -457.5 150t-148.5 429v854h397v-866q0 -99 54 -152t155 -53q106 0 163.5 53.5t57.5 151.5v866h398v-844q0 -285 -151.5 -437t-467.5 -152z" />
    <glyph glyph-name="V" unicode="V" horiz-adv-x="1544" 
d="M516 0l-506 1413h426l326 -1042h10l332 1042h430l-504 -1413h-514z" />
    <glyph glyph-name="W" unicode="W" horiz-adv-x="2107" 
d="M307 0l-266 1413h412l170 -1089h16l201 1089h432l201 -1089h14l170 1089h411l-268 -1413h-579l-170 946l-162 -946h-582z" />
    <glyph glyph-name="X" unicode="X" horiz-adv-x="1589" 
d="M18 0l482 707l-480 706h494l285 -446l280 446h492l-484 -706l486 -707h-492l-284 438l-285 -438h-494z" />
    <glyph glyph-name="Y" unicode="Y" horiz-adv-x="1456" 
d="M532 0v549l-536 864h444l299 -500l277 500h444l-536 -864v-549h-392z" />
    <glyph glyph-name="Z" unicode="Z" horiz-adv-x="1354" 
d="M66 0v248l667 833h-622v332h1159v-268l-631 -813h631v-332h-1204z" />
    <glyph glyph-name="bracketleft" unicode="[" horiz-adv-x="696" 
d="M154 -274v1955h489v-268h-164v-1413h164v-274h-489z" />
    <glyph glyph-name="backslash" unicode="\" horiz-adv-x="938" 
d="M631 -156l-660 1565h338l658 -1565h-336z" />
    <glyph glyph-name="bracketright" unicode="]" horiz-adv-x="696" 
d="M53 -274v274h164v1413h-164v268h490v-1955h-490z" />
    <glyph glyph-name="asciicircum" unicode="^" horiz-adv-x="1133" 
d="M43 442l524 971l523 -971h-377l-146 334l-149 -334h-375z" />
    <glyph glyph-name="underscore" unicode="_" horiz-adv-x="1300" 
d="M174 -287v287h952v-287h-952z" />
    <glyph glyph-name="grave" unicode="`" horiz-adv-x="614" 
d="M340 1118l-338 246h360l234 -246h-256z" />
    <glyph glyph-name="a" unicode="a" horiz-adv-x="1192" 
d="M1165 276h6v-231q-150 -68 -258 -68q-139 0 -189 115q-116 -66 -195.5 -90.5t-153.5 -24.5q-149 0 -239.5 76t-90.5 211q0 64 20.5 115.5t61.5 88t91 64t120 49t136.5 37.5t151.5 34l72 15v13q0 123 -163 123q-141 0 -408 -94v290q261 70 446 70q224 0 341.5 -109
t117.5 -350v-221q0 -36 1 -54t5.5 -42t16 -34.5t30.5 -10.5q31 0 80 28zM422 307q0 -44 23 -66t63 -22q74 0 190 65v196h-1l-1 -1h-1h-1h-1l-1 -1h-1h-1h-1l-1 -1h-1h-1l-1 -1h-1h-1h-1l-1 -1q-152 -41 -195 -65q-63 -37 -64 -103z" />
    <glyph glyph-name="b" unicode="b" horiz-adv-x="1317" 
d="M815 -23q-106 0 -193 49.5t-118 125.5v-152h-377v1413h387v-498q42 69 126 111.5t183 42.5q198 0 321.5 -148.5t123.5 -396.5q0 -249 -125.5 -398t-327.5 -149zM692 266q96 0 147.5 68.5t51.5 193.5q0 124 -51.5 192t-147.5 68q-97 0 -148.5 -68t-51.5 -192
q0 -126 51.5 -194t148.5 -68z" />
    <glyph glyph-name="c" unicode="c" horiz-adv-x="1053" 
d="M590 -20q-133 0 -239 42t-173 116.5t-102 172.5t-35 213t35 213t102 172.5t173 117t239 42.5q170 0 356 -59v-357h-6q-66 56 -142.5 85.5t-148.5 29.5q-104 0 -170.5 -62.5t-66.5 -181.5t67.5 -181t171.5 -62q71 0 147 30t141 84h7v-356q-177 -59 -356 -59z" />
    <glyph glyph-name="d" unicode="d" horiz-adv-x="1317" 
d="M813 1413h377v-1413h-387v128q-118 -148 -311 -148q-195 0 -319 148t-124 396q0 249 126 398t323 149q96 0 178 -41t137 -118v501zM627 264q96 0 147 68.5t51 193.5q0 124 -51 192t-147 68q-97 0 -149 -68t-52 -192q0 -125 51.5 -193.5t149.5 -68.5z" />
    <glyph glyph-name="e" unicode="e" horiz-adv-x="1153" 
d="M1083 588q0 -58 -12 -123h-684q19 -105 113 -158t217 -53q160 0 327 82h13v-279q-190 -77 -391 -77q-104 0 -197.5 22.5t-172.5 68.5t-136.5 111t-90 154.5t-32.5 195.5q0 124 42.5 226t116.5 169.5t172 104.5t210 37q222 0 363.5 -134t141.5 -347zM580 836
q-84 0 -135.5 -45t-61.5 -123h383q-8 81 -55 124.5t-131 43.5z" />
    <glyph glyph-name="f" unicode="f" horiz-adv-x="743" 
d="M643 1182q-46 0 -65 -30t-19 -103h184v-213h-184v-836h-383v836h-164v213h164v71q0 137 86.5 225.5t255.5 88.5q63 0 225 -21v-242q-60 11 -100 11z" />
    <glyph glyph-name="g" unicode="g" horiz-adv-x="1315" 
d="M582 -385q-218 0 -478 59v314q250 -94 447 -94q252 0 252 184v121q-21 -52 -100 -92.5t-195 -40.5q-91 0 -171 29t-144.5 87t-102 156t-37.5 225q0 129 38.5 229.5t103 159t141.5 88t162 29.5q102 0 184 -40t121 -95v115h385v-951q0 -128 -43.5 -222.5t-125 -151
t-190 -83t-247.5 -26.5zM629 326q184 0 184 229q0 227 -184 227q-185 0 -185 -227q0 -229 185 -229z" />
    <glyph glyph-name="h" unicode="h" 
d="M127 0v1413h379v-522h12q52 78 136.5 128t197.5 50q161 0 264 -102t103 -267v-700h-385v602q0 78 -45 119t-115 41t-115 -41t-45 -119v-602h-387z" />
    <glyph glyph-name="i" unicode="i" horiz-adv-x="641" 
d="M125 1157v256h391v-256h-391zM127 0v1049h387v-1049h-387z" />
    <glyph glyph-name="j" unicode="j" horiz-adv-x="641" 
d="M125 1157v256h391v-256h-391zM160 -375q-99 0 -199 31v276q42 -10 68 -10q49 0 73.5 35t24.5 117v975h387v-1057q0 -95 -27 -167t-76 -115t-112 -64t-139 -21z" />
    <glyph glyph-name="k" unicode="k" horiz-adv-x="1298" 
d="M1307 0h-437l-356 626v-626h-387v1413h387v-695l317 331h463l-401 -396z" />
    <glyph glyph-name="l" unicode="l" horiz-adv-x="680" 
d="M109 1413h383v-1048q0 -74 18.5 -104t64.5 -30q29 0 101 11v-242q-156 -20 -225 -20q-87 0 -153.5 24.5t-107 68.5t-61 99.5t-20.5 120.5v1120z" />
    <glyph glyph-name="m" unicode="m" horiz-adv-x="1847" 
d="M127 0v1049h379v-142h6q97 162 293 162q101 0 163.5 -44t106.5 -126h10q60 84 130 127t176 43q169 0 260.5 -102.5t91.5 -280.5v-686h-387v649q0 58 -31.5 85.5t-81.5 27.5q-51 0 -83 -27.5t-32 -85.5v-649h-387v649q0 58 -31 85.5t-81 27.5q-52 0 -83.5 -27.5
t-31.5 -85.5v-649h-387z" />
    <glyph glyph-name="n" unicode="n" 
d="M127 0v1049h379v-158h12q52 78 136.5 128t197.5 50q161 0 264 -102t103 -267v-700h-385v602q0 78 -45 119t-115 41t-115 -41t-45 -119v-602h-387z" />
    <glyph glyph-name="o" unicode="o" horiz-adv-x="1239" 
d="M618 -20q-266 0 -422.5 146t-156.5 396q0 249 157 398t422 149q266 0 423 -148t157 -399t-156.5 -396.5t-423.5 -145.5zM623 264q96 0 147 68.5t51 193.5q0 124 -51 192t-147 68q-97 0 -149 -68t-52 -192q0 -125 51.5 -193.5t149.5 -68.5z" />
    <glyph glyph-name="p" unicode="p" horiz-adv-x="1317" 
d="M825 1069q195 0 319 -148.5t124 -396.5q0 -249 -126 -398t-323 -149q-96 0 -178 41t-137 118v-501h-377v1414h387v-128q118 148 311 148zM692 262q96 0 147.5 68.5t51.5 193.5q0 124 -51.5 192t-147.5 68q-97 0 -148.5 -68t-51.5 -192q0 -126 51.5 -194t148.5 -68z" />
    <glyph glyph-name="q" unicode="q" horiz-adv-x="1317" 
d="M803 1049h387v-1414h-377v501q-55 -77 -137 -118t-178 -41q-197 0 -323 149t-126 398q0 248 124 396.5t319 148.5q193 0 311 -148v128zM627 262q96 0 147 68.5t51 193.5q0 124 -51 192t-147 68q-97 0 -149 -68t-52 -192q0 -125 51.5 -193.5t149.5 -68.5z" />
    <glyph glyph-name="r" unicode="r" horiz-adv-x="852" 
d="M127 0v1049h371v-199q54 68 145 129t195 90v-336q-108 -21 -200 -64t-124 -87v-582h-387z" />
    <glyph glyph-name="s" unicode="s" horiz-adv-x="1049" 
d="M524 -23q-187 0 -434 58v295q95 -31 220.5 -55.5t193.5 -24.5q49 0 81.5 15t32.5 46q0 14 -6.5 26t-21 21.5t-29.5 17t-40.5 15t-45.5 13t-52 14t-54 14.5q-61 18 -105.5 38t-90 54t-69.5 86t-24 121q0 173 111.5 255.5t312.5 82.5q207 0 434 -68v-290q-117 43 -236 73.5
t-182 30.5q-41 0 -65.5 -13.5t-24.5 -37.5q0 -17 11.5 -30.5t39 -25t50 -19t67.5 -19.5q155 -44 224 -83q164 -94 165 -274q0 -72 -26 -131.5t-79.5 -106t-144.5 -72.5t-213 -26z" />
    <glyph glyph-name="t" unicode="t" horiz-adv-x="791" 
d="M735 836h-192v-471q0 -75 18 -104.5t64 -29.5q29 0 100 11v-242q-156 -20 -225 -20q-87 0 -153.5 24.5t-107 68.5t-61 99.5t-20.5 120.5v543h-138v213h138v200l385 82v-282h192v-213z" />
    <glyph glyph-name="u" unicode="u" 
d="M469 -20q-161 0 -264 102t-103 266v701h385v-603q0 -77 45 -118t115 -41t115 41t45 118v603h387v-1049h-379v158h-12q-51 -79 -135.5 -128.5t-198.5 -49.5z" />
    <glyph glyph-name="v" unicode="v" horiz-adv-x="1227" 
d="M399 0l-411 1049h415l211 -699l211 699h414l-412 -1049h-428z" />
    <glyph glyph-name="w" unicode="w" horiz-adv-x="1847" 
d="M301 -8l-297 1057h408l155 -715l181 715h350l178 -721l162 721h407l-301 -1049h-493l-131 549l-125 -557h-494z" />
    <glyph glyph-name="x" unicode="x" horiz-adv-x="1286" 
d="M1288 1049l-377 -521l377 -528h-440l-203 321l-209 -321h-436l367 528l-367 521h436l209 -312l203 312h440z" />
    <glyph glyph-name="y" unicode="y" horiz-adv-x="1180" 
d="M305 -377q-66 0 -176 10v277q80 -12 139 -12q64 0 95.5 19.5t31.5 66.5q0 25 -14 63l-393 1002h411l176 -611h21l182 611h414l-457 -1141q-65 -162 -164.5 -223.5t-265.5 -61.5z" />
    <glyph glyph-name="z" unicode="z" horiz-adv-x="1108" 
d="M1028 1049v-279l-473 -473h473v-297h-948v266l507 488h-511v295h952z" />
    <glyph glyph-name="braceleft" unicode="{" horiz-adv-x="696" 
d="M487 -330q-136 0 -230.5 104t-94.5 255v385q0 101 -121 104v316q62 2 91.5 27t29.5 77v385q0 151 94 254.5t231 103.5h154v-338h-74q-44 0 -72 -29.5t-28 -76.5v-342q0 -30 -3 -51t-15 -52.5t-42 -60t-77 -53.5q47 -25 77 -54.5t42 -61.5t15 -53.5t3 -51.5v-342
q0 -48 28 -77.5t72 -29.5h74v-338h-154z" />
    <glyph glyph-name="bar" unicode="|" horiz-adv-x="668" 
d="M193 -156v1692h282v-1692h-282z" />
    <glyph glyph-name="braceright" unicode="}" horiz-adv-x="696" 
d="M55 -330v338h74q44 0 72 29.5t28 77.5v342q0 30 3 51.5t15 53.5t42.5 61.5t77.5 54.5q-47 25 -77.5 53.5t-42.5 60t-15 52.5t-3 51v342q0 47 -28 76.5t-72 29.5h-74v338h154q137 0 231.5 -103.5t94.5 -254.5v-385q0 -52 29 -77t91 -27v-316q-61 -1 -90.5 -26.5
t-29.5 -77.5v-385q0 -151 -94.5 -255t-231.5 -104h-154z" />
    <glyph glyph-name="asciitilde" unicode="~" horiz-adv-x="1292" 
d="M131 344q0 212 79 323t228 111q49 0 93.5 -15t77 -36t63 -42.5t64.5 -36.5t69 -15q96 0 96 145h262q0 -211 -79 -322.5t-228 -111.5q-59 0 -113 22.5t-89 50t-79.5 50t-85.5 22.5q-15 0 -28.5 -4.5t-30.5 -17.5t-27 -44.5t-10 -78.5h-262z" />
    <glyph glyph-name="exclamdown" unicode="&#xa1;" horiz-adv-x="688" 
d="M158 512h372v-326h-372v326zM201 18h286l29 -919h-344z" />
    <glyph glyph-name="cent" unicode="&#xa2;" horiz-adv-x="1155" 
d="M712 768q-104 0 -170.5 -62.5t-66.5 -181.5t67.5 -181t171.5 -62q71 0 147 30t141 84h7v-356q-89 -30 -194 -46v-173h-328v179q-186 45 -284.5 187t-98.5 338t98.5 338t284.5 188v142h328v-137q96 -15 194 -45v-357h-6q-66 56 -142.5 85.5t-148.5 29.5z" />
    <glyph glyph-name="sterling" unicode="&#xa3;" horiz-adv-x="1372" 
d="M750 1124q-87 0 -127.5 -32t-40.5 -103q0 -55 48 -147h308v-164h-219q45 -92 45 -158q0 -114 -135 -188h604v-332h-1104v250q88 0 148.5 12.5t92 36t44 50t12.5 61.5q0 55 -25 116t-74 152h-198v164h113q-52 118 -52 205q0 92 29.5 165t79 120t118.5 77.5t144 43.5
t160 13q130 0 265 -30.5t247 -81.5v-373q-94 56 -233 99.5t-250 43.5z" />
    <glyph glyph-name="currency" unicode="&#xa4;" horiz-adv-x="1405" 
d="M332 88l-215 225l112 111q-65 118 -65 256t65 256l-112 111l215 225l114 -119q123 66 256 66q135 0 256 -66l115 119l215 -225l-112 -111q65 -118 65 -256t-65 -256l112 -111l-215 -225l-115 119q-121 -66 -256 -66q-133 0 -256 66zM702 451q94 0 164 67q66 69 66 162
t-66 162q-70 67 -164 67q-93 0 -163 -67q-66 -69 -66 -162t66 -162q70 -67 163 -67z" />
    <glyph glyph-name="yen" unicode="&#xa5;" horiz-adv-x="1546" 
d="M1505 1413l-400 -645h128v-248h-264v-108h264v-248h-264v-164h-392v164h-292v248h292v108h-292v248h156l-400 645h444l299 -500l277 500h444z" />
    <glyph glyph-name="brokenbar" unicode="&#xa6;" horiz-adv-x="717" 
d="M190 774v639h336v-639h-336zM190 -156v578h336v-578h-336z" />
    <glyph glyph-name="section" unicode="&#xa7;" horiz-adv-x="1049" 
d="M829 486q89 -74 89 -205q0 -77 -30.5 -136.5t-84 -94.5t-121 -52.5t-147.5 -17.5q-178 0 -338 77v258q77 -46 174 -79t166 -33q44 0 71 15t27 46q0 30 -28 49.5t-72 31t-98 23.5t-108 33.5t-98 54t-72 92.5t-28 142q0 148 89 237q-89 76 -89 206q0 77 30.5 136.5
t84.5 94.5t121.5 52.5t146.5 17.5q174 0 338 -78v-258q-77 46 -174.5 80t-165.5 34q-45 0 -71.5 -16t-26.5 -47t28 -50.5t72 -31t98 -23.5t108 -33.5t98 -53.5t72 -92t28 -142q0 -148 -89 -237zM412 715q0 -38 32 -61.5t95 -44.5q46 8 72 31.5t26 57.5q0 38 -32 61.5
t-95 44.5q-46 -8 -72 -31t-26 -58z" />
    <glyph glyph-name="dieresis" unicode="&#xa8;" horiz-adv-x="928" 
d="M121 1108v256h260v-256h-260zM547 1108v256h260v-256h-260z" />
    <glyph glyph-name="copyright" unicode="&#xa9;" horiz-adv-x="1645" 
d="M823 -20q-197 0 -367.5 99t-271 268t-100.5 364q0 145 59.5 280t159 233t236 157t284.5 59q149 0 285.5 -59t235.5 -157t158 -233t59 -280q0 -147 -59 -282t-158 -233.5t-235.5 -157t-285.5 -58.5zM823 109q123 0 236 47.5t195 128t131 192t49 234.5q0 163 -82.5 301
t-223.5 218.5t-305 80.5q-165 0 -305.5 -80.5t-222.5 -218.5t-82 -301q0 -164 82 -303t222.5 -219t305.5 -80zM827 311q-192 0 -295.5 111t-103.5 285t103.5 284.5t295.5 110.5q122 0 260 -41v-266q-43 40 -104 64t-121 24q-72 0 -116 -42t-44 -134q0 -94 44 -136.5
t116 -42.5q58 0 119 25t106 63v-262q-126 -43 -260 -43z" />
    <glyph glyph-name="ordfeminine" unicode="&#xaa;" horiz-adv-x="1008" 
d="M844 874q20 0 59 23v-162q-103 -47 -178 -47q-94 0 -129 80q-146 -80 -242 -80q-102 0 -164.5 53t-62.5 146q0 46 16 83.5t47 64.5t69 47.5t90 36.5t102 28.5t112 26.5l15 3q-1 40 -31 60t-80 20q-118 0 -283 -79v200q83 33 141.5 47.5t139.5 14.5q73 0 129.5 -13.5
t107 -46.5t78 -97.5t27.5 -158.5v-151q0 -25 0.5 -37.5t4 -29.5t11.5 -24.5t21 -7.5zM387 907q0 -27 17.5 -40.5t44.5 -10.5q41 6 129 46v126q-102 -28 -146.5 -54t-44.5 -67z" />
    <glyph glyph-name="guillemotleft" unicode="&#xab;" horiz-adv-x="1223" 
d="M520 113l-518 395l518 403v-280l-166 -123l166 -117v-278zM1087 113l-518 395l518 403v-280l-165 -123l165 -117v-278z" />
    <glyph glyph-name="logicalnot" unicode="&#xac;" horiz-adv-x="1358" 
d="M791 106v355h-674v336h1050v-691h-376z" />
    <glyph glyph-name="registered" unicode="&#xae;" horiz-adv-x="1251" 
d="M625 1434q144 0 266 -72.5t193 -197t71 -271.5t-71 -271.5t-193 -197t-266 -72.5t-266 72.5t-192.5 197t-70.5 271.5t70.5 271.5t192.5 197t266 72.5zM625 487q166 0 283.5 119.5t117.5 286.5t-117.5 287t-283.5 120t-283 -119.5t-117 -287.5t117 -287t283 -119zM860 977
q0 -118 -98 -156l112 -170h-159l-90 158h-45v-158h-140v498h246q82 0 128 -47.5t46 -124.5zM580 1030v-102h77q64 0 64 53q0 26 -15 37.5t-49 11.5h-77z" />
    <glyph glyph-name="macron" unicode="&#xaf;" horiz-adv-x="838" 
d="M119 1171v183h600v-183h-600z" />
    <glyph glyph-name="degree" unicode="&#xb0;" horiz-adv-x="950" 
d="M477 700q-153 0 -260.5 108t-107.5 261q0 151 107.5 258t260.5 107q151 0 258 -107t107 -258q0 -152 -107 -260.5t-258 -108.5zM475 909q66 0 112 46.5t46 111.5q0 66 -46 112t-112 46t-112 -46t-46 -112q0 -65 46 -111.5t112 -46.5z" />
    <glyph glyph-name="plusminus" unicode="&#xb1;" horiz-adv-x="1434" 
d="M573 377v373h-456v290h456v373h287v-373h457v-290h-457v-373h-287zM119 -4v287h1196v-287h-1196z" />
    <glyph glyph-name="acute" unicode="&#xb4;" horiz-adv-x="629" 
d="M18 1118l234 246h360l-338 -246h-256z" />
    <glyph glyph-name="uni00B5" unicode="&#xb5;" horiz-adv-x="1341" 
d="M190 -266v1265h330v-542q0 -80 45.5 -123t116.5 -43q78 0 123 42.5t45 123.5v542h330v-999h-330v78q-104 -101 -225 -101h-113l-14 -243h-308z" />
    <glyph glyph-name="paragraph" unicode="&#xb6;" horiz-adv-x="1303" 
d="M506 -287v910q-119 0 -221 45.5t-167 137.5t-65 212t65 212t167 137.5t221 45.5h211v-1700h-211zM897 -287v1700h213v-1700h-213z" />
    <glyph glyph-name="periodcentered" unicode="&#xb7;" horiz-adv-x="614" 
d="M313 586q-83 0 -135.5 50.5t-52.5 123.5q0 82 52.5 135t135.5 53q73 0 123.5 -53t50.5 -135q0 -71 -50.5 -122.5t-123.5 -51.5z" />
    <glyph glyph-name="cedilla" unicode="&#xb8;" horiz-adv-x="602" 
d="M276 -483q-96 0 -208 24v176q115 -39 192 -39q90 0 90 54q0 13 -5 23.5t-18.5 19t-25.5 15t-36 13.5t-40.5 11.5t-49.5 12.5t-52 13l96 160h207l-80 -106q95 -27 150 -72t55 -125q0 -89 -73.5 -134.5t-201.5 -45.5z" />
    <glyph glyph-name="ordmasculine" unicode="&#xba;" horiz-adv-x="836" 
d="M416 696q-169 0 -267 100t-98 269t98 269t267 100t268.5 -100t99.5 -269t-99.5 -269t-268.5 -100zM418 877q66 0 105.5 51t39.5 137t-39.5 137t-105.5 51q-67 0 -106.5 -51t-39.5 -137t39.5 -137t106.5 -51z" />
    <glyph glyph-name="guillemotright" unicode="&#xbb;" horiz-adv-x="1227" 
d="M135 113v288l166 107l-166 113v290l518 -403zM702 113v288l166 107l-166 113v290l519 -403z" />
    <glyph glyph-name="questiondown" unicode="&#xbf;" horiz-adv-x="1022" 
d="M778 512v-326h-372v326h372zM764 14v-151q0 -58 -24 -103t-59.5 -70t-77.5 -49.5t-77.5 -43.5t-59.5 -49.5t-24 -69.5q0 -94 138 -94q90 0 195.5 37.5t187.5 93.5v-367q-198 -70 -400 -70q-240 0 -375 107t-135 311q0 77 20 135.5t52.5 92.5t71 58t77.5 39.5t71.5 30.5
t52.5 37t20 52v73h346z" />
    <glyph glyph-name="Agrave" unicode="&#xc0;" horiz-adv-x="1554" 
d="M905 1531h-256l-338 246h360zM1114 0l-78 254h-518l-78 -254h-430l504 1413h526l504 -1413h-430zM612 561h330l-160 522h-10z" />
    <glyph glyph-name="Aacute" unicode="&#xc1;" horiz-adv-x="1554" 
d="M1243 1777l-338 -246h-256l234 246h360zM1114 0l-78 254h-518l-78 -254h-430l504 1413h526l504 -1413h-430zM612 561h330l-160 522h-10z" />
    <glyph glyph-name="Acircumflex" unicode="&#xc2;" horiz-adv-x="1554" 
d="M778 1654l-97 -137h-256l238 260h231l240 -260h-260zM1114 0l-78 254h-518l-78 -254h-430l504 1413h526l504 -1413h-430zM612 561h330l-160 522h-10z" />
    <glyph glyph-name="Atilde" unicode="&#xc3;" horiz-adv-x="1554" 
d="M644 1599q-55 0 -102 -88l-172 92q100 193 270 193q55 0 108.5 -20t95.5 -40t69 -20q53 0 100 84l170 -93q-99 -188 -264 -188q-56 0 -110.5 20t-96.5 40t-68 20zM1114 0l-78 254h-518l-78 -254h-430l504 1413h526l504 -1413h-430zM612 561h330l-160 522h-10z" />
    <glyph glyph-name="Adieresis" unicode="&#xc4;" horiz-adv-x="1554" 
d="M696 1777v-256h-301v256h301zM1161 1777v-256h-301v256h301zM1114 0l-78 254h-518l-78 -254h-430l504 1413h526l504 -1413h-430zM612 561h330l-160 522h-10z" />
    <glyph glyph-name="Aring" unicode="&#xc5;" horiz-adv-x="1554" 
d="M10 0l504 1413h55q-24 49 -24 107q0 97 68 164t165 67t165.5 -67.5t68.5 -163.5q0 -58 -25 -107h53l504 -1413h-430l-78 254h-518l-78 -254h-430zM778 1415q43 0 73 30.5t30 72.5q0 43 -30 72.5t-73 29.5t-72.5 -29.5t-29.5 -72.5t29.5 -73t72.5 -30zM612 561h330
l-160 522h-10z" />
    <glyph glyph-name="AE" unicode="&#xc6;" horiz-adv-x="2245" 
d="M2116 1081h-686v-217h645v-311h-645v-219h686v-334h-1084v287h-472l-103 -287h-451l602 1413h1508v-332zM1032 592v489h-186l-176 -489h362z" />
    <glyph glyph-name="Ccedilla" unicode="&#xc7;" horiz-adv-x="1444" 
d="M823 1077q-166 0 -268 -96.5t-102 -284.5t102 -284.5t268 -96.5q115 0 242.5 45.5t251.5 131.5h8v-404q-207 -90 -434 -106l-67 -88q95 -27 150 -72t55 -125q0 -89 -73.5 -134.5t-201.5 -45.5q-96 0 -208 24v176q115 -39 192 -39q90 0 90 54q0 13 -5 23.5t-18.5 19
t-25.5 15t-36 13.5t-40.5 11.5t-49.5 12.5t-52 13l88 147q-133 16 -243.5 66t-197.5 135t-136 215t-49 293q0 147 40 267.5t109.5 203t165.5 139t205.5 82t231.5 25.5q261 0 510 -108v-404h-8q-254 176 -494 176z" />
    <glyph glyph-name="Egrave" unicode="&#xc8;" horiz-adv-x="1372" 
d="M557 1531l-338 246h360l234 -246h-256zM160 0v1413h1083v-332h-686v-217h645v-311h-645v-219h686v-334h-1083z" />
    <glyph glyph-name="Eacute" unicode="&#xc9;" horiz-adv-x="1372" 
d="M557 1531l234 246h360l-338 -246h-256zM160 0v1413h1083v-332h-686v-217h645v-311h-645v-219h686v-334h-1083z" />
    <glyph glyph-name="Ecircumflex" unicode="&#xca;" horiz-adv-x="1372" 
d="M333 1517l238 260h231l240 -260h-260l-96 137l-97 -137h-256zM160 0v1413h1083v-332h-686v-217h645v-311h-645v-219h686v-334h-1083z" />
    <glyph glyph-name="Edieresis" unicode="&#xcb;" horiz-adv-x="1372" 
d="M303 1521v256h301v-256h-301zM768 1521v256h301v-256h-301zM160 0v1413h1083v-332h-686v-217h645v-311h-645v-219h686v-334h-1083z" />
    <glyph glyph-name="Igrave" unicode="&#xcc;" horiz-adv-x="717" 
d="M229 1531l-338 246h360l234 -246h-256zM160 0v1413h397v-1413h-397z" />
    <glyph glyph-name="Iacute" unicode="&#xcd;" horiz-adv-x="717" 
d="M229 1531l234 246h360l-338 -246h-256zM160 0v1413h397v-1413h-397z" />
    <glyph glyph-name="Icircumflex" unicode="&#xce;" horiz-adv-x="717" 
d="M5 1517l238 260h231l240 -260h-260l-96 137l-97 -137h-256zM160 0v1413h397v-1413h-397z" />
    <glyph glyph-name="Idieresis" unicode="&#xcf;" horiz-adv-x="717" 
d="M-25 1521v256h301v-256h-301zM440 1521v256h301v-256h-301zM160 0v1413h397v-1413h-397z" />
    <glyph glyph-name="Eth" unicode="&#xd0;" horiz-adv-x="1511" 
d="M676 1413q381 0 576.5 -187t195.5 -521q0 -338 -197 -521.5t-577 -183.5h-514v625h-111v164h111v624h516zM672 328q188 0 286.5 96.5t98.5 286.5q0 183 -96 277.5t-289 94.5h-115v-294h168v-164h-168v-297h115z" />
    <glyph glyph-name="Ntilde" unicode="&#xd1;" horiz-adv-x="1661" 
d="M595 1511l-172 92q100 193 270 193q55 0 108.5 -20t95.5 -40t69 -20q53 0 100 84l170 -93q-99 -188 -264 -188q-56 0 -110.5 20t-96.5 40t-68 20q-55 0 -102 -88zM160 0v1413h385l551 -805h8v805h397v-1413h-389l-543 791h-12v-791h-397z" />
    <glyph glyph-name="Ograve" unicode="&#xd2;" horiz-adv-x="1577" 
d="M659 1531l-338 246h360l234 -246h-256zM786 -20q-332 0 -526 196.5t-194 530.5t194 530.5t526 196.5t529.5 -197t197.5 -530t-197 -530t-530 -197zM788 311q146 0 232 105t86 291q0 185 -86 290t-232 105q-145 0 -229 -104.5t-84 -290.5t84 -291t229 -105z" />
    <glyph glyph-name="Oacute" unicode="&#xd3;" horiz-adv-x="1577" 
d="M659 1531l234 246h360l-338 -246h-256zM786 -20q-332 0 -526 196.5t-194 530.5t194 530.5t526 196.5t529.5 -197t197.5 -530t-197 -530t-530 -197zM788 311q146 0 232 105t86 291q0 185 -86 290t-232 105q-145 0 -229 -104.5t-84 -290.5t84 -291t229 -105z" />
    <glyph glyph-name="Ocircumflex" unicode="&#xd4;" horiz-adv-x="1577" 
d="M435 1517l238 260h231l240 -260h-260l-96 137l-97 -137h-256zM786 -20q-332 0 -526 196.5t-194 530.5t194 530.5t526 196.5t529.5 -197t197.5 -530t-197 -530t-530 -197zM788 311q146 0 232 105t86 291q0 185 -86 290t-232 105q-145 0 -229 -104.5t-84 -290.5t84 -291
t229 -105z" />
    <glyph glyph-name="Otilde" unicode="&#xd5;" horiz-adv-x="1577" 
d="M552 1511l-172 92q100 193 270 193q55 0 108.5 -20t95.5 -40t69 -20q53 0 100 84l170 -93q-99 -188 -264 -188q-56 0 -110.5 20t-96.5 40t-68 20q-55 0 -102 -88zM786 -20q-332 0 -526 196.5t-194 530.5t194 530.5t526 196.5t529.5 -197t197.5 -530t-197 -530t-530 -197z
M788 311q146 0 232 105t86 291q0 185 -86 290t-232 105q-145 0 -229 -104.5t-84 -290.5t84 -291t229 -105z" />
    <glyph glyph-name="Odieresis" unicode="&#xd6;" horiz-adv-x="1577" 
d="M405 1521v256h301v-256h-301zM870 1521v256h301v-256h-301zM786 -20q-332 0 -526 196.5t-194 530.5t194 530.5t526 196.5t529.5 -197t197.5 -530t-197 -530t-530 -197zM788 311q146 0 232 105t86 291q0 185 -86 290t-232 105q-145 0 -229 -104.5t-84 -290.5t84 -291
t229 -105z" />
    <glyph glyph-name="multiply" unicode="&#xd7;" horiz-adv-x="1087" 
d="M283 47l-207 207l264 262l-264 264l203 203l264 -264l264 264l205 -205l-264 -264l264 -264l-203 -203l-264 264z" />
    <glyph glyph-name="Oslash" unicode="&#xd8;" horiz-adv-x="1577" 
d="M1389 1148q124 -181 124 -441q0 -333 -197 -530t-530 -197q-259 0 -439 124l-92 -92l-166 158l97 97q-120 180 -120 440q0 334 194 530.5t526 196.5q261 0 442 -125l92 92l164 -158zM475 707q0 -73 14 -137l478 478q-76 54 -179 54q-145 0 -229 -104.5t-84 -290.5z
M788 311q146 0 232 105t86 291q0 79 -16 142l-481 -482q74 -56 179 -56z" />
    <glyph glyph-name="Ugrave" unicode="&#xd9;" horiz-adv-x="1477" 
d="M610 1531l-338 246h360l234 -246h-256zM733 -20q-309 0 -457.5 150t-148.5 429v854h397v-866q0 -99 54 -152t155 -53q106 0 163.5 53.5t57.5 151.5v866h398v-844q0 -285 -151.5 -437t-467.5 -152z" />
    <glyph glyph-name="Uacute" unicode="&#xda;" horiz-adv-x="1477" 
d="M610 1531l234 246h360l-338 -246h-256zM733 -20q-309 0 -457.5 150t-148.5 429v854h397v-866q0 -99 54 -152t155 -53q106 0 163.5 53.5t57.5 151.5v866h398v-844q0 -285 -151.5 -437t-467.5 -152z" />
    <glyph glyph-name="Ucircumflex" unicode="&#xdb;" horiz-adv-x="1477" 
d="M386 1517l238 260h231l240 -260h-260l-96 137l-97 -137h-256zM733 -20q-309 0 -457.5 150t-148.5 429v854h397v-866q0 -99 54 -152t155 -53q106 0 163.5 53.5t57.5 151.5v866h398v-844q0 -285 -151.5 -437t-467.5 -152z" />
    <glyph glyph-name="Udieresis" unicode="&#xdc;" horiz-adv-x="1477" 
d="M356 1521v256h301v-256h-301zM821 1521v256h301v-256h-301zM733 -20q-309 0 -457.5 150t-148.5 429v854h397v-866q0 -99 54 -152t155 -53q106 0 163.5 53.5t57.5 151.5v866h398v-844q0 -285 -151.5 -437t-467.5 -152z" />
    <glyph glyph-name="Yacute" unicode="&#xdd;" horiz-adv-x="1456" 
d="M600 1528l234 246h360l-338 -246h-256zM532 0v549l-536 864h444l299 -500l277 500h444l-536 -864v-549h-392z" />
    <glyph glyph-name="Thorn" unicode="&#xde;" horiz-adv-x="1333" 
d="M160 0v1413h334v-108h290q104 0 191.5 -26.5t159 -82.5t111.5 -153t40 -228q0 -106 -27.5 -188.5t-73 -135t-111.5 -86.5t-136.5 -47.5t-153.5 -13.5h-290v-344h-334zM494 668h270q94 0 141 40t47 113q0 72 -47.5 112t-140.5 40h-270v-305z" />
    <glyph glyph-name="germandbls" unicode="&#xdf;" horiz-adv-x="1413" 
d="M700 336h127q99 0 141 20.5t42 63.5q0 37 -31.5 63.5t-77 44t-91 39t-77 62t-31.5 98.5q0 55 28 90.5t68 51.5t79.5 29.5t67.5 36.5t28 60q0 95 -189 95q-145 0 -204.5 -63.5t-59.5 -229.5v-797h-397v793q0 620 641 620q259 0 401 -96t142 -262q0 -61 -20 -106.5
t-49.5 -69t-64 -43.5t-64 -31.5t-49.5 -29.5t-20 -42q0 -22 18.5 -37.5t48 -26t65.5 -22t72 -32.5t65.5 -51.5t48 -84.5t18.5 -125q0 -186 -135.5 -270t-437.5 -84h-103v336z" />
    <glyph glyph-name="agrave" unicode="&#xe0;" horiz-adv-x="1192" 
d="M719 1167h-256l-338 246h360zM1165 276h6v-231q-150 -68 -258 -68q-139 0 -189 115q-116 -66 -195.5 -90.5t-153.5 -24.5q-149 0 -239.5 76t-90.5 211q0 64 20.5 115.5t61.5 88t91 64t120 49t136.5 37.5t151.5 34l72 15v13q0 123 -163 123q-141 0 -408 -94v290
q261 70 446 70q224 0 341.5 -109t117.5 -350v-221q0 -36 1 -54t5.5 -42t16 -34.5t30.5 -10.5q31 0 80 28zM422 307q0 -44 23 -66t63 -22q74 0 190 65v196h-1l-1 -1h-1h-1h-1l-1 -1h-1h-1h-1l-1 -1h-1h-1l-1 -1h-1h-1h-1l-1 -1q-152 -41 -195 -65q-63 -37 -64 -103z" />
    <glyph glyph-name="aacute" unicode="&#xe1;" horiz-adv-x="1192" 
d="M1057 1413l-338 -246h-256l234 246h360zM1165 276h6v-231q-150 -68 -258 -68q-139 0 -189 115q-116 -66 -195.5 -90.5t-153.5 -24.5q-149 0 -239.5 76t-90.5 211q0 64 20.5 115.5t61.5 88t91 64t120 49t136.5 37.5t151.5 34l72 15v13q0 123 -163 123q-141 0 -408 -94v290
q261 70 446 70q224 0 341.5 -109t117.5 -350v-221q0 -36 1 -54t5.5 -42t16 -34.5t30.5 -10.5q31 0 80 28zM422 307q0 -44 23 -66t63 -22q74 0 190 65v196h-1l-1 -1h-1h-1h-1l-1 -1h-1h-1h-1l-1 -1h-1h-1l-1 -1h-1h-1h-1l-1 -1q-152 -41 -195 -65q-63 -37 -64 -103z" />
    <glyph glyph-name="acircumflex" unicode="&#xe2;" horiz-adv-x="1192" 
d="M592 1290l-97 -137h-256l238 260h231l240 -260h-260zM1165 276h6v-231q-150 -68 -258 -68q-139 0 -189 115q-116 -66 -195.5 -90.5t-153.5 -24.5q-149 0 -239.5 76t-90.5 211q0 64 20.5 115.5t61.5 88t91 64t120 49t136.5 37.5t151.5 34l72 15v13q0 123 -163 123
q-141 0 -408 -94v290q261 70 446 70q224 0 341.5 -109t117.5 -350v-221q0 -36 1 -54t5.5 -42t16 -34.5t30.5 -10.5q31 0 80 28zM422 307q0 -44 23 -66t63 -22q74 0 190 65v196h-1l-1 -1h-1h-1h-1l-1 -1h-1h-1h-1l-1 -1h-1h-1l-1 -1h-1h-1h-1l-1 -1q-152 -41 -195 -65
q-63 -37 -64 -103z" />
    <glyph glyph-name="atilde" unicode="&#xe3;" horiz-adv-x="1192" 
d="M458 1235q-55 0 -102 -88l-172 92q100 193 270 193q55 0 108.5 -20t95.5 -40t69 -20q53 0 100 84l170 -93q-99 -188 -264 -188q-56 0 -110.5 20t-96.5 40t-68 20zM1165 276h6v-231q-150 -68 -258 -68q-139 0 -189 115q-116 -66 -195.5 -90.5t-153.5 -24.5
q-149 0 -239.5 76t-90.5 211q0 64 20.5 115.5t61.5 88t91 64t120 49t136.5 37.5t151.5 34l72 15v13q0 123 -163 123q-141 0 -408 -94v290q261 70 446 70q224 0 341.5 -109t117.5 -350v-221q0 -36 1 -54t5.5 -42t16 -34.5t30.5 -10.5q31 0 80 28zM422 307q0 -44 23 -66
t63 -22q74 0 190 65v196h-1l-1 -1h-1h-1h-1l-1 -1h-1h-1h-1l-1 -1h-1h-1l-1 -1h-1h-1h-1l-1 -1q-152 -41 -195 -65q-63 -37 -64 -103z" />
    <glyph glyph-name="adieresis" unicode="&#xe4;" horiz-adv-x="1192" 
d="M510 1413v-256h-301v256h301zM975 1413v-256h-301v256h301zM1165 276h6v-231q-150 -68 -258 -68q-139 0 -189 115q-116 -66 -195.5 -90.5t-153.5 -24.5q-149 0 -239.5 76t-90.5 211q0 64 20.5 115.5t61.5 88t91 64t120 49t136.5 37.5t151.5 34l72 15v13q0 123 -163 123
q-141 0 -408 -94v290q261 70 446 70q224 0 341.5 -109t117.5 -350v-221q0 -36 1 -54t5.5 -42t16 -34.5t30.5 -10.5q31 0 80 28zM422 307q0 -44 23 -66t63 -22q74 0 190 65v196h-1l-1 -1h-1h-1h-1l-1 -1h-1h-1h-1l-1 -1h-1h-1l-1 -1h-1h-1h-1l-1 -1q-152 -41 -195 -65
q-63 -37 -64 -103z" />
    <glyph glyph-name="aring" unicode="&#xe5;" horiz-adv-x="1192" 
d="M1165 276h6v-231q-150 -68 -258 -68q-139 0 -189 115q-116 -66 -195.5 -90.5t-153.5 -24.5q-149 0 -239.5 76t-90.5 211q0 64 20.5 115.5t61.5 88t91 64t120 49t136.5 37.5t151.5 34l72 15v13q0 123 -163 123q-141 0 -408 -94v290q144 39 278 58q-47 63 -47 143
q0 96 68.5 163.5t165.5 67.5t165 -67t68 -164q0 -89 -59 -156q266 -82 266 -434v-221q0 -36 1 -54t5.5 -42t16 -34.5t30.5 -10.5q31 0 80 28zM592 1300q-43 0 -72.5 -29.5t-29.5 -72.5t29.5 -73t72.5 -30q42 0 72 30.5t30 72.5q0 43 -29.5 72.5t-72.5 29.5zM422 307
q0 -44 23 -66t63 -22q74 0 190 65v196h-1l-1 -1h-1h-1h-1l-1 -1h-1h-1h-1l-1 -1h-1h-1l-1 -1h-1h-1h-1l-1 -1q-152 -41 -195 -65q-63 -37 -64 -103z" />
    <glyph glyph-name="ae" unicode="&#xe6;" horiz-adv-x="1800" 
d="M1729 588q0 -53 -13 -123h-672q25 -103 99 -149t198 -46q139 0 361 64v-305q-189 -49 -375 -49q-332 0 -501 165q-140 -94 -238.5 -131t-198.5 -37q-162 0 -253 75t-91 212q0 68 20 122t74 95.5t95 68t137.5 55.5t142.5 40t167 38q11 3 17 4q-3 57 -45.5 86.5
t-113.5 29.5q-69 0 -178 -28t-234 -87v291q121 48 206.5 69t201.5 21q240 0 345 -109q141 109 343 109q224 0 365 -134t141 -347zM1225 836q-155 0 -186 -168h357q-13 82 -52.5 125t-118.5 43zM422 307q0 -44 23 -66t63 -22q67 0 216 77q-37 87 -42 200q-146 -44 -203 -83.5
t-57 -105.5z" />
    <glyph glyph-name="ccedilla" unicode="&#xe7;" horiz-adv-x="1053" 
d="M649 768q-104 0 -170.5 -62.5t-66.5 -181.5t67.5 -181t171.5 -62q71 0 147 30t141 84h7v-356q-118 -39 -254 -53l-69 -92q95 -27 150 -72t55 -125q0 -89 -73.5 -134.5t-201.5 -45.5q-95 0 -208 24v176q115 -39 192 -39q90 0 90 54q0 13 -5 23.5t-18.5 19t-25.5 15
t-36 13.5t-40.5 11.5t-49.5 12.5t-52 13l88 147q-216 30 -331.5 177t-115.5 360q0 115 35 213t102 172.5t173 117t239 42.5q170 0 356 -59v-357h-6q-66 56 -142.5 85.5t-148.5 29.5z" />
    <glyph glyph-name="egrave" unicode="&#xe8;" horiz-adv-x="1153" 
d="M707 1167h-256l-338 246h360zM1083 588q0 -58 -12 -123h-684q19 -105 113 -158t217 -53q160 0 327 82h13v-279q-190 -77 -391 -77q-104 0 -197.5 22.5t-172.5 68.5t-136.5 111t-90 154.5t-32.5 195.5q0 124 42.5 226t116.5 169.5t172 104.5t210 37q222 0 363.5 -134
t141.5 -347zM580 836q-84 0 -135.5 -45t-61.5 -123h383q-8 81 -55 124.5t-131 43.5z" />
    <glyph glyph-name="eacute" unicode="&#xe9;" horiz-adv-x="1153" 
d="M1045 1413l-338 -246h-256l234 246h360zM1083 588q0 -58 -12 -123h-684q19 -105 113 -158t217 -53q160 0 327 82h13v-279q-190 -77 -391 -77q-104 0 -197.5 22.5t-172.5 68.5t-136.5 111t-90 154.5t-32.5 195.5q0 124 42.5 226t116.5 169.5t172 104.5t210 37
q222 0 363.5 -134t141.5 -347zM580 836q-84 0 -135.5 -45t-61.5 -123h383q-8 81 -55 124.5t-131 43.5z" />
    <glyph glyph-name="ecircumflex" unicode="&#xea;" horiz-adv-x="1153" 
d="M580 1290l-97 -137h-256l238 260h231l240 -260h-260zM1083 588q0 -58 -12 -123h-684q19 -105 113 -158t217 -53q160 0 327 82h13v-279q-190 -77 -391 -77q-104 0 -197.5 22.5t-172.5 68.5t-136.5 111t-90 154.5t-32.5 195.5q0 124 42.5 226t116.5 169.5t172 104.5t210 37
q222 0 363.5 -134t141.5 -347zM580 836q-84 0 -135.5 -45t-61.5 -123h383q-8 81 -55 124.5t-131 43.5z" />
    <glyph glyph-name="edieresis" unicode="&#xeb;" horiz-adv-x="1153" 
d="M498 1413v-256h-301v256h301zM963 1413v-256h-301v256h301zM1083 588q0 -58 -12 -123h-684q19 -105 113 -158t217 -53q160 0 327 82h13v-279q-190 -77 -391 -77q-104 0 -197.5 22.5t-172.5 68.5t-136.5 111t-90 154.5t-32.5 195.5q0 124 42.5 226t116.5 169.5t172 104.5
t210 37q222 0 363.5 -134t141.5 -347zM580 836q-84 0 -135.5 -45t-61.5 -123h383q-8 81 -55 124.5t-131 43.5z" />
    <glyph glyph-name="igrave" unicode="&#xec;" horiz-adv-x="641" 
d="M193 1167l-338 246h360l234 -246h-256zM127 0v1049h387v-1049h-387z" />
    <glyph glyph-name="iacute" unicode="&#xed;" horiz-adv-x="641" 
d="M193 1167l234 246h360l-338 -246h-256zM127 0v1049h387v-1049h-387z" />
    <glyph glyph-name="icircumflex" unicode="&#xee;" horiz-adv-x="641" 
d="M-31 1153l238 260h231l240 -260h-260l-96 137l-97 -137h-256zM127 0v1049h387v-1049h-387z" />
    <glyph glyph-name="idieresis" unicode="&#xef;" horiz-adv-x="641" 
d="M-61 1157v256h301v-256h-301zM404 1157v256h301v-256h-301zM127 0v1049h387v-1049h-387z" />
    <glyph glyph-name="eth" unicode="&#xf0;" horiz-adv-x="1208" 
d="M860 1270q307 -329 307 -699q0 -273 -157 -432t-410 -159q-157 0 -283.5 61.5t-202 181.5t-75.5 279q0 111 37.5 198.5t103 141.5t150.5 82t184 28q115 0 199 -40q-69 148 -196 269l-281 -100l-33 123l236 45q-82 65 -240 164h510q51 -43 82 -73l266 94l33 -123zM610 295
q79 0 130 56t51 141q0 82 -50.5 135t-130.5 53q-81 0 -134.5 -53.5t-53.5 -134.5q0 -84 54.5 -140.5t133.5 -56.5z" />
    <glyph glyph-name="ntilde" unicode="&#xf1;" 
d="M423 1147l-172 92q100 193 270 193q55 0 108.5 -20t95.5 -40t69 -20q53 0 100 84l170 -93q-99 -188 -264 -188q-56 0 -110.5 20t-96.5 40t-68 20q-55 0 -102 -88zM127 0v1049h379v-158h12q52 78 136.5 128t197.5 50q161 0 264 -102t103 -267v-700h-385v602q0 78 -45 119
t-115 41t-115 -41t-45 -119v-602h-387z" />
    <glyph glyph-name="ograve" unicode="&#xf2;" horiz-adv-x="1239" 
d="M492 1167l-338 246h360l234 -246h-256zM618 -20q-266 0 -422.5 146t-156.5 396q0 249 157 398t422 149q266 0 423 -148t157 -399t-156.5 -396.5t-423.5 -145.5zM623 264q96 0 147 68.5t51 193.5q0 124 -51 192t-147 68q-97 0 -149 -68t-52 -192q0 -125 51.5 -193.5
t149.5 -68.5z" />
    <glyph glyph-name="oacute" unicode="&#xf3;" horiz-adv-x="1239" 
d="M492 1167l234 246h360l-338 -246h-256zM618 -20q-266 0 -422.5 146t-156.5 396q0 249 157 398t422 149q266 0 423 -148t157 -399t-156.5 -396.5t-423.5 -145.5zM623 264q96 0 147 68.5t51 193.5q0 124 -51 192t-147 68q-97 0 -149 -68t-52 -192q0 -125 51.5 -193.5
t149.5 -68.5z" />
    <glyph glyph-name="ocircumflex" unicode="&#xf4;" horiz-adv-x="1239" 
d="M268 1153l238 260h231l240 -260h-260l-96 137l-97 -137h-256zM618 -20q-266 0 -422.5 146t-156.5 396q0 249 157 398t422 149q266 0 423 -148t157 -399t-156.5 -396.5t-423.5 -145.5zM623 264q96 0 147 68.5t51 193.5q0 124 -51 192t-147 68q-97 0 -149 -68t-52 -192
q0 -125 51.5 -193.5t149.5 -68.5z" />
    <glyph glyph-name="otilde" unicode="&#xf5;" horiz-adv-x="1239" 
d="M385 1147l-172 92q100 193 270 193q55 0 108.5 -20t95.5 -40t69 -20q53 0 100 84l170 -93q-99 -188 -264 -188q-56 0 -110.5 20t-96.5 40t-68 20q-55 0 -102 -88zM618 -20q-266 0 -422.5 146t-156.5 396q0 249 157 398t422 149q266 0 423 -148t157 -399t-156.5 -396.5
t-423.5 -145.5zM623 264q96 0 147 68.5t51 193.5q0 124 -51 192t-147 68q-97 0 -149 -68t-52 -192q0 -125 51.5 -193.5t149.5 -68.5z" />
    <glyph glyph-name="odieresis" unicode="&#xf6;" horiz-adv-x="1239" 
d="M238 1157v256h301v-256h-301zM703 1157v256h301v-256h-301zM618 -20q-266 0 -422.5 146t-156.5 396q0 249 157 398t422 149q266 0 423 -148t157 -399t-156.5 -396.5t-423.5 -145.5zM623 264q96 0 147 68.5t51 193.5q0 124 -51 192t-147 68q-97 0 -149 -68t-52 -192
q0 -125 51.5 -193.5t149.5 -68.5z" />
    <glyph glyph-name="divide" unicode="&#xf7;" horiz-adv-x="1110" 
d="M408 786v250h294v-250h-294zM82 373v291h946v-291h-946zM408 0v250h294v-250h-294z" />
    <glyph glyph-name="oslash" unicode="&#xf8;" horiz-adv-x="1239" 
d="M1059 903q139 -147 139 -381q0 -251 -156.5 -396.5t-423.5 -145.5q-217 0 -362 98l-94 -97l-72 70l89 91q-140 145 -140 380q0 249 157 398t422 149q216 0 365 -101l94 97l72 -70zM422 526q0 -67 15 -118l319 327q-51 51 -133 51q-97 0 -149 -68t-52 -192zM623 264
q96 0 147 68.5t51 193.5q0 66 -15 117l-318 -327q50 -52 135 -52z" />
    <glyph glyph-name="ugrave" unicode="&#xf9;" 
d="M533 1167l-338 246h360l234 -246h-256zM469 -20q-161 0 -264 102t-103 266v701h385v-603q0 -77 45 -118t115 -41t115 41t45 118v603h387v-1049h-379v158h-12q-51 -79 -135.5 -128.5t-198.5 -49.5z" />
    <glyph glyph-name="uacute" unicode="&#xfa;" 
d="M533 1167l234 246h360l-338 -246h-256zM469 -20q-161 0 -264 102t-103 266v701h385v-603q0 -77 45 -118t115 -41t115 41t45 118v603h387v-1049h-379v158h-12q-51 -79 -135.5 -128.5t-198.5 -49.5z" />
    <glyph glyph-name="ucircumflex" unicode="&#xfb;" 
d="M309 1153l238 260h231l240 -260h-260l-96 137l-97 -137h-256zM469 -20q-161 0 -264 102t-103 266v701h385v-603q0 -77 45 -118t115 -41t115 41t45 118v603h387v-1049h-379v158h-12q-51 -79 -135.5 -128.5t-198.5 -49.5z" />
    <glyph glyph-name="udieresis" unicode="&#xfc;" 
d="M279 1157v256h301v-256h-301zM744 1157v256h301v-256h-301zM469 -20q-161 0 -264 102t-103 266v701h385v-603q0 -77 45 -118t115 -41t115 41t45 118v603h387v-1049h-379v158h-12q-51 -79 -135.5 -128.5t-198.5 -49.5z" />
    <glyph glyph-name="yacute" unicode="&#xfd;" horiz-adv-x="1180" 
d="M461 1167l234 246h360l-338 -246h-256zM305 -377q-66 0 -176 10v277q80 -12 139 -12q64 0 95.5 19.5t31.5 66.5q0 25 -14 63l-393 1002h411l176 -611h21l182 611h414l-457 -1141q-65 -162 -164.5 -223.5t-265.5 -61.5z" />
    <glyph glyph-name="thorn" unicode="&#xfe;" horiz-adv-x="1319" 
d="M827 1069q195 0 319 -148.5t124 -396.5q0 -249 -126 -398t-323 -149q-96 0 -178 41t-137 118v-501h-377v1778h387v-492q118 148 311 148zM692 262q96 0 147.5 68.5t51.5 193.5q0 124 -51.5 192t-147.5 68q-97 0 -148.5 -68t-51.5 -192q0 -126 51.5 -194t148.5 -68z" />
    <glyph glyph-name="ydieresis" unicode="&#xff;" horiz-adv-x="1180" 
d="M207 1157v256h301v-256h-301zM672 1157v256h301v-256h-301zM305 -377q-66 0 -176 10v277q80 -12 139 -12q64 0 95.5 19.5t31.5 66.5q0 25 -14 63l-393 1002h411l176 -611h21l182 611h414l-457 -1141q-65 -162 -164.5 -223.5t-265.5 -61.5z" />
    <glyph glyph-name="Amacron" unicode="&#x100;" horiz-adv-x="1554" 
d="M1134 1718v-183h-717v183h717zM1114 0l-78 254h-518l-78 -254h-430l504 1413h526l504 -1413h-430zM612 561h330l-160 522h-10z" />
    <glyph glyph-name="amacron" unicode="&#x101;" horiz-adv-x="1192" 
d="M948 1354v-183h-717v183h717zM1165 276h6v-231q-150 -68 -258 -68q-139 0 -189 115q-116 -66 -195.5 -90.5t-153.5 -24.5q-149 0 -239.5 76t-90.5 211q0 64 20.5 115.5t61.5 88t91 64t120 49t136.5 37.5t151.5 34l72 15v13q0 123 -163 123q-141 0 -408 -94v290
q261 70 446 70q224 0 341.5 -109t117.5 -350v-221q0 -36 1 -54t5.5 -42t16 -34.5t30.5 -10.5q31 0 80 28zM422 307q0 -44 23 -66t63 -22q74 0 190 65v196h-1l-1 -1h-1h-1h-1l-1 -1h-1h-1h-1l-1 -1h-1h-1l-1 -1h-1h-1h-1l-1 -1q-152 -41 -195 -65q-63 -37 -64 -103z" />
    <glyph glyph-name="Abreve" unicode="&#x102;" horiz-adv-x="1554" 
d="M774 1507q-152 0 -239 72.5t-87 197.5h220q0 -127 104 -127q107 0 107 127h229q0 -124 -91 -197t-243 -73zM1114 0l-78 254h-518l-78 -254h-430l504 1413h526l504 -1413h-430zM612 561h330l-160 522h-10z" />
    <glyph glyph-name="abreve" unicode="&#x103;" horiz-adv-x="1192" 
d="M588 1143q-152 0 -239 72.5t-87 197.5h220q0 -127 104 -127q107 0 107 127h229q0 -124 -91 -197t-243 -73zM1165 276h6v-231q-150 -68 -258 -68q-139 0 -189 115q-116 -66 -195.5 -90.5t-153.5 -24.5q-149 0 -239.5 76t-90.5 211q0 64 20.5 115.5t61.5 88t91 64t120 49
t136.5 37.5t151.5 34l72 15v13q0 123 -163 123q-141 0 -408 -94v290q261 70 446 70q224 0 341.5 -109t117.5 -350v-221q0 -36 1 -54t5.5 -42t16 -34.5t30.5 -10.5q31 0 80 28zM422 307q0 -44 23 -66t63 -22q74 0 190 65v196h-1l-1 -1h-1h-1h-1l-1 -1h-1h-1h-1l-1 -1h-1h-1
l-1 -1h-1h-1h-1l-1 -1q-152 -41 -195 -65q-63 -37 -64 -103z" />
    <glyph glyph-name="Aogonek" unicode="&#x104;" horiz-adv-x="1554" 
d="M1331 -252q0 -24 14 -37.5t40 -13.5q73 0 159 82v-221q-99 -62 -211 -62q-99 0 -159 51.5t-60 135.5q0 72 50 154.5t152 162.5h-202l-78 254h-518l-78 -254h-430l504 1413h526l504 -1413q-105 -67 -159 -136t-54 -116zM612 561h330l-160 522h-10z" />
    <glyph glyph-name="aogonek" unicode="&#x105;" horiz-adv-x="1192" 
d="M1171 45q-105 -67 -159 -136t-54 -116q0 -24 14 -37.5t40 -13.5q73 0 159 82v-221q-99 -62 -211 -62q-99 0 -159 51.5t-60 135.5q0 123 129 252q-104 16 -146 112q-116 -66 -195.5 -90.5t-153.5 -24.5q-149 0 -239.5 76t-90.5 211q0 64 20.5 115.5t61.5 88t91 64t120 49
t136.5 37.5t151.5 34l72 15v13q0 123 -163 123q-141 0 -408 -94v290q261 70 446 70q224 0 341.5 -109t117.5 -350v-221q0 -36 1 -54t5.5 -42t16 -34.5t30.5 -10.5q31 0 80 28h6v-231zM422 307q0 -44 23 -66t63 -22q74 0 190 65v196h-1l-1 -1h-1h-1h-1l-1 -1h-1h-1h-1l-1 -1
h-1h-1l-1 -1h-1h-1h-1l-1 -1q-152 -41 -195 -65q-63 -37 -64 -103z" />
    <glyph glyph-name="Cacute" unicode="&#x106;" horiz-adv-x="1444" 
d="M662 1531l234 246h360l-338 -246h-256zM815 -20q-122 0 -231.5 25.5t-205.5 82t-165.5 139t-109.5 202.5t-40 267t40 267.5t109.5 203t165.5 139t205.5 82t231.5 25.5q261 0 510 -108v-404h-8q-254 176 -494 176q-166 0 -268 -96.5t-102 -284.5t102 -284.5t268 -96.5
q115 0 242.5 45.5t251.5 131.5h8v-404q-246 -108 -510 -108z" />
    <glyph glyph-name="cacute" unicode="&#x107;" horiz-adv-x="1053" 
d="M461 1167l234 246h360l-338 -246h-256zM590 -20q-133 0 -239 42t-173 116.5t-102 172.5t-35 213t35 213t102 172.5t173 117t239 42.5q170 0 356 -59v-357h-6q-66 56 -142.5 85.5t-148.5 29.5q-104 0 -170.5 -62.5t-66.5 -181.5t67.5 -181t171.5 -62q71 0 147 30t141 84h7
v-356q-177 -59 -356 -59z" />
    <glyph glyph-name="Cdotaccent" unicode="&#x10a;" horiz-adv-x="1444" 
d="M594 1521v256h391v-256h-391zM815 -20q-122 0 -231.5 25.5t-205.5 82t-165.5 139t-109.5 202.5t-40 267t40 267.5t109.5 203t165.5 139t205.5 82t231.5 25.5q261 0 510 -108v-404h-8q-254 176 -494 176q-166 0 -268 -96.5t-102 -284.5t102 -284.5t268 -96.5
q115 0 242.5 45.5t251.5 131.5h8v-404q-246 -108 -510 -108z" />
    <glyph glyph-name="cdotaccent" unicode="&#x10b;" horiz-adv-x="1053" 
d="M393 1157v256h391v-256h-391zM590 -20q-133 0 -239 42t-173 116.5t-102 172.5t-35 213t35 213t102 172.5t173 117t239 42.5q170 0 356 -59v-357h-6q-66 56 -142.5 85.5t-148.5 29.5q-104 0 -170.5 -62.5t-66.5 -181.5t67.5 -181t171.5 -62q71 0 147 30t141 84h7v-356
q-177 -59 -356 -59z" />
    <glyph glyph-name="Ccaron" unicode="&#x10c;" horiz-adv-x="1444" 
d="M674 1525l-238 252h256l97 -129l96 129h260l-240 -252h-231zM815 -20q-122 0 -231.5 25.5t-205.5 82t-165.5 139t-109.5 202.5t-40 267t40 267.5t109.5 203t165.5 139t205.5 82t231.5 25.5q261 0 510 -108v-404h-8q-254 176 -494 176q-166 0 -268 -96.5t-102 -284.5
t102 -284.5t268 -96.5q115 0 242.5 45.5t251.5 131.5h8v-404q-246 -108 -510 -108z" />
    <glyph glyph-name="ccaron" unicode="&#x10d;" horiz-adv-x="1053" 
d="M473 1161l-238 252h256l97 -129l96 129h260l-240 -252h-231zM590 -20q-133 0 -239 42t-173 116.5t-102 172.5t-35 213t35 213t102 172.5t173 117t239 42.5q170 0 356 -59v-357h-6q-66 56 -142.5 85.5t-148.5 29.5q-104 0 -170.5 -62.5t-66.5 -181.5t67.5 -181t171.5 -62
q71 0 147 30t141 84h7v-356q-177 -59 -356 -59z" />
    <glyph glyph-name="Dcaron" unicode="&#x10e;" horiz-adv-x="1511" 
d="M612 1525l-238 252h256l97 -129l96 129h260l-240 -252h-231zM160 0v1413h516q381 0 576.5 -187t195.5 -521q0 -338 -197 -521.5t-577 -183.5h-514zM557 328h115q188 0 286.5 96.5t98.5 286.5q0 183 -96 277.5t-289 94.5h-115v-755z" />
    <glyph glyph-name="dcaron" unicode="&#x10f;" horiz-adv-x="1669" 
d="M1290 1415h387v-364q0 -105 -25.5 -177t-77.5 -112.5t-120 -58t-162 -17.5v148q30 0 55 3.5t43.5 9t32.5 16t23 19t15 24t9 26t4.5 29.5t1.5 29.5t-0.5 31t-0.5 29.5h-185v364zM813 912v501h377v-1413h-387v128q-118 -148 -311 -148q-195 0 -319 148t-124 396
q0 249 126 398t323 149q96 0 178 -41t137 -118zM627 264q96 0 147 68.5t51 193.5q0 124 -51 192t-147 68q-97 0 -149 -68t-52 -192q0 -125 51.5 -193.5t149.5 -68.5z" />
    <glyph glyph-name="Dcroat" unicode="&#x110;" horiz-adv-x="1511" 
d="M676 1413q381 0 576.5 -187t195.5 -521q0 -338 -197 -521.5t-577 -183.5h-514v625h-111v164h111v624h516zM672 328q188 0 286.5 96.5t98.5 286.5q0 183 -96 277.5t-289 94.5h-115v-294h168v-164h-168v-297h115z" />
    <glyph glyph-name="dcroat" unicode="&#x111;" horiz-adv-x="1317" 
d="M1335 1325v-164h-145v-1161h-387v128q-118 -148 -311 -148q-195 0 -319 148t-124 396q0 249 126 398t323 149q96 0 178 -41t137 -118v249h-154v164h154v88h377v-88h145zM627 264q96 0 147 68.5t51 193.5q0 124 -51 192t-147 68q-97 0 -149 -68t-52 -192
q0 -125 51.5 -193.5t149.5 -68.5z" />
    <glyph glyph-name="Emacron" unicode="&#x112;" horiz-adv-x="1372" 
d="M325 1535v183h717v-183h-717zM160 0v1413h1083v-332h-686v-217h645v-311h-645v-219h686v-334h-1083z" />
    <glyph glyph-name="emacron" unicode="&#x113;" horiz-adv-x="1153" 
d="M936 1354v-183h-717v183h717zM1083 588q0 -58 -12 -123h-684q19 -105 113 -158t217 -53q160 0 327 82h13v-279q-190 -77 -391 -77q-104 0 -197.5 22.5t-172.5 68.5t-136.5 111t-90 154.5t-32.5 195.5q0 124 42.5 226t116.5 169.5t172 104.5t210 37q222 0 363.5 -134
t141.5 -347zM580 836q-84 0 -135.5 -45t-61.5 -123h383q-8 81 -55 124.5t-131 43.5z" />
    <glyph glyph-name="Edotaccent" unicode="&#x116;" horiz-adv-x="1372" 
d="M489 1521v256h391v-256h-391zM160 0v1413h1083v-332h-686v-217h645v-311h-645v-219h686v-334h-1083z" />
    <glyph glyph-name="edotaccent" unicode="&#x117;" horiz-adv-x="1153" 
d="M774 1413v-256h-391v256h391zM1083 588q0 -58 -12 -123h-684q19 -105 113 -158t217 -53q160 0 327 82h13v-279q-190 -77 -391 -77q-104 0 -197.5 22.5t-172.5 68.5t-136.5 111t-90 154.5t-32.5 195.5q0 124 42.5 226t116.5 169.5t172 104.5t210 37q222 0 363.5 -134
t141.5 -347zM580 836q-84 0 -135.5 -45t-61.5 -123h383q-8 81 -55 124.5t-131 43.5z" />
    <glyph glyph-name="Eogonek" unicode="&#x118;" horiz-adv-x="1372" 
d="M1243 1081h-686v-217h645v-311h-645v-219h686v-334q-105 -67 -159 -136t-54 -116q0 -24 14 -37.5t40 -13.5q73 0 159 82v-221q-99 -62 -211 -62q-99 0 -159 51.5t-60 135.5q0 72 50 154.5t152 162.5h-855v1413h1083v-332z" />
    <glyph glyph-name="eogonek" unicode="&#x119;" horiz-adv-x="1153" 
d="M1083 588q0 -58 -12 -123h-684q19 -105 113 -158t217 -53q160 0 327 82h13v-279q-105 -67 -159 -136t-54 -116q0 -24 14 -37.5t40 -13.5q73 0 159 82v-221q-99 -62 -211 -62q-99 0 -159 51.5t-60 135.5q0 117 120 243q-41 -3 -81 -3q-104 0 -197.5 22.5t-172.5 68.5
t-136.5 111t-90 154.5t-32.5 195.5q0 124 42.5 226t116.5 169.5t172 104.5t210 37q222 0 363.5 -134t141.5 -347zM580 836q-84 0 -135.5 -45t-61.5 -123h383q-8 81 -55 124.5t-131 43.5z" />
    <glyph glyph-name="Ecaron" unicode="&#x11a;" horiz-adv-x="1372" 
d="M569 1525l-238 252h256l97 -129l96 129h260l-240 -252h-231zM160 0v1413h1083v-332h-686v-217h645v-311h-645v-219h686v-334h-1083z" />
    <glyph glyph-name="ecaron" unicode="&#x11b;" horiz-adv-x="1153" 
d="M694 1161h-231l-238 252h256l97 -129l96 129h260zM1083 588q0 -58 -12 -123h-684q19 -105 113 -158t217 -53q160 0 327 82h13v-279q-190 -77 -391 -77q-104 0 -197.5 22.5t-172.5 68.5t-136.5 111t-90 154.5t-32.5 195.5q0 124 42.5 226t116.5 169.5t172 104.5t210 37
q222 0 363.5 -134t141.5 -347zM580 836q-84 0 -135.5 -45t-61.5 -123h383q-8 81 -55 124.5t-131 43.5z" />
    <glyph glyph-name="Gbreve" unicode="&#x11e;" horiz-adv-x="1464" 
d="M776 1507q-152 0 -239 72.5t-87 197.5h220q0 -127 104 -127q107 0 107 127h229q0 -124 -91 -197t-243 -73zM825 1077q-166 0 -266 -96.5t-100 -284.5q0 -189 99.5 -286t262.5 -97q52 0 115 11v376h389v-612q-246 -108 -510 -108q-122 0 -231.5 25.5t-205.5 82t-165.5 139
t-109.5 202.5t-40 267t40 267.5t109.5 203t165.5 139t205.5 82t231.5 25.5q261 0 510 -108v-398h-18q-247 170 -482 170z" />
    <glyph glyph-name="gbreve" unicode="&#x11f;" horiz-adv-x="1315" 
d="M655 1143q-152 0 -239 72.5t-87 197.5h220q0 -127 104 -127q107 0 107 127h229q0 -124 -91 -197t-243 -73zM582 -385q-218 0 -478 59v314q250 -94 447 -94q252 0 252 184v121q-21 -52 -100 -92.5t-195 -40.5q-91 0 -171 29t-144.5 87t-102 156t-37.5 225
q0 129 38.5 229.5t103 159t141.5 88t162 29.5q102 0 184 -40t121 -95v115h385v-951q0 -128 -43.5 -222.5t-125 -151t-190 -83t-247.5 -26.5zM629 326q184 0 184 229q0 227 -184 227q-185 0 -185 -227q0 -229 185 -229z" />
    <glyph glyph-name="Gdotaccent" unicode="&#x120;" horiz-adv-x="1464" 
d="M974 1777v-256h-391v256h391zM825 1077q-166 0 -266 -96.5t-100 -284.5q0 -189 99.5 -286t262.5 -97q52 0 115 11v376h389v-612q-246 -108 -510 -108q-122 0 -231.5 25.5t-205.5 82t-165.5 139t-109.5 202.5t-40 267t40 267.5t109.5 203t165.5 139t205.5 82t231.5 25.5
q261 0 510 -108v-398h-18q-247 170 -482 170z" />
    <glyph glyph-name="gdotaccent" unicode="&#x121;" horiz-adv-x="1315" 
d="M462 1157v256h391v-256h-391zM582 -385q-218 0 -478 59v314q250 -94 447 -94q252 0 252 184v121q-21 -52 -100 -92.5t-195 -40.5q-91 0 -171 29t-144.5 87t-102 156t-37.5 225q0 129 38.5 229.5t103 159t141.5 88t162 29.5q102 0 184 -40t121 -95v115h385v-951
q0 -128 -43.5 -222.5t-125 -151t-190 -83t-247.5 -26.5zM629 326q184 0 184 229q0 227 -184 227q-185 0 -185 -227q0 -229 185 -229z" />
    <glyph glyph-name="Gcommaaccent" unicode="&#x122;" horiz-adv-x="1464" 
d="M825 1077q-166 0 -266 -96.5t-100 -284.5q0 -189 99.5 -286t262.5 -97q52 0 115 11v376h389v-612q-246 -108 -510 -108q-122 0 -231.5 25.5t-205.5 82t-165.5 139t-109.5 202.5t-40 267t40 267.5t109.5 203t165.5 139t205.5 82t231.5 25.5q261 0 510 -108v-398h-18
q-247 170 -482 170zM458 -430l150 301h342l-289 -301h-203z" />
    <glyph glyph-name="gcommaaccent" unicode="&#x123;" horiz-adv-x="1315" 
d="M487 1159l289 250h203l-150 -250h-342zM582 -385q-218 0 -478 59v314q250 -94 447 -94q252 0 252 184v121q-21 -52 -100 -92.5t-195 -40.5q-91 0 -171 29t-144.5 87t-102 156t-37.5 225q0 129 38.5 229.5t103 159t141.5 88t162 29.5q102 0 184 -40t121 -95v115h385v-951
q0 -128 -43.5 -222.5t-125 -151t-190 -83t-247.5 -26.5zM629 326q184 0 184 229q0 227 -184 227q-185 0 -185 -227q0 -229 185 -229z" />
    <glyph glyph-name="Hbar" unicode="&#x126;" horiz-adv-x="1589" 
d="M1532 1225v-164h-102v-1061h-398v553h-475v-553h-397v1061h-102v164h102v188h397v-188h475v188h398v-188h102zM1032 864v197h-475v-197h475z" />
    <glyph glyph-name="hbar" unicode="&#x127;" horiz-adv-x="1427" 
d="M233 0v1151h-106v164h106v98h379v-98h191v-164h-191v-260h13q51 78 135.5 128t197.5 50q161 0 264 -102t103 -267v-700h-385v582q0 77 -45 118t-115 41t-114.5 -40.5t-44.5 -118.5v-582h-388z" />
    <glyph glyph-name="Itilde" unicode="&#x128;" horiz-adv-x="717" 
d="M122 1511l-172 92q100 193 270 193q55 0 108.5 -20t95.5 -40t69 -20q53 0 100 84l170 -93q-99 -188 -264 -188q-56 0 -110.5 20t-96.5 40t-68 20q-55 0 -102 -88zM160 0v1413h397v-1413h-397z" />
    <glyph glyph-name="Imacron" unicode="&#x12a;" horiz-adv-x="717" 
d="M-3 1535v183h717v-183h-717zM160 0v1413h397v-1413h-397z" />
    <glyph glyph-name="imacron" unicode="&#x12b;" horiz-adv-x="641" 
d="M-39 1171v183h717v-183h-717zM127 0v1049h387v-1049h-387z" />
    <glyph glyph-name="Iogonek" unicode="&#x12e;" horiz-adv-x="717" 
d="M557 0q-105 -67 -159 -136t-54 -116q0 -24 14 -37.5t40 -13.5q73 0 159 82v-221q-99 -62 -211 -62q-99 0 -159 51.5t-60 135.5q0 72 50 154.5t152 162.5h-169v1413h397v-1413z" />
    <glyph glyph-name="iogonek" unicode="&#x12f;" horiz-adv-x="641" 
d="M125 1413h391v-256h-391v256zM127 0v1049h387v-1049q-105 -67 -159 -136t-54 -116q0 -24 14 -37.5t40 -13.5q73 0 159 82v-221q-99 -62 -211 -62q-99 0 -159 51.5t-60 135.5q0 72 50 154.5t152 162.5h-159z" />
    <glyph glyph-name="Idotaccent" unicode="&#x130;" horiz-adv-x="717" 
d="M161 1521v256h391v-256h-391zM160 0v1413h397v-1413h-397z" />
    <glyph glyph-name="dotlessi" unicode="&#x131;" horiz-adv-x="641" 
d="M127 0v1049h387v-1049h-387z" />
    <glyph glyph-name="IJ" unicode="&#x132;" horiz-adv-x="1589" 
d="M160 0v1413h397v-1413h-397zM979 -20q-170 0 -233 20v322l51 -6t61 -6.5t49 -2.5q24 0 34.5 0.5t30 3t28.5 8t22 17t18.5 28t10 42t4.5 59.5v948h397v-1026q0 -185 -126.5 -296t-346.5 -111z" />
    <glyph glyph-name="ij" unicode="&#x133;" horiz-adv-x="1282" 
d="M125 1157v256h391v-256h-391zM766 1157v256h391v-256h-391zM127 0v1049h387v-1049h-387zM801 -375q-99 0 -199 31v276q42 -10 68 -10q49 0 73.5 35t24.5 117v975h387v-1057q0 -95 -27 -167t-76 -115t-112 -64t-139 -21z" />
    <glyph glyph-name="Kcommaaccent" unicode="&#x136;" horiz-adv-x="1552" 
d="M979 815l563 -815h-495l-490 773v-773h-397v1413h397v-559l467 559h506zM442 -430l150 301h342l-289 -301h-203z" />
    <glyph glyph-name="kcommaaccent" unicode="&#x137;" horiz-adv-x="1298" 
d="M893 653l414 -653h-437l-356 626v-626h-387v1413h387v-695l317 331h463zM331 -430l150 301h342l-289 -301h-203z" />
    <glyph glyph-name="kgreenlandic" unicode="&#x138;" horiz-adv-x="1298" 
d="M1307 0h-437l-356 626v-626h-387v1049h387v-331l317 331h463l-401 -396z" />
    <glyph glyph-name="Lacute" unicode="&#x139;" horiz-adv-x="1192" 
d="M229 1531l234 246h360l-338 -246h-256zM160 0v1413h397v-1081h604v-332h-1001z" />
    <glyph glyph-name="lacute" unicode="&#x13a;" horiz-adv-x="641" 
d="M192 1532l234 246h360l-338 -246h-256zM109 1413h383v-1048q0 -74 18.5 -104t64.5 -30q29 0 101 11v-242q-156 -20 -225 -20q-87 0 -153.5 24.5t-107 68.5t-61 99.5t-20.5 120.5v1120z" />
    <glyph glyph-name="Lcommaaccent" unicode="&#x13b;" horiz-adv-x="1192" 
d="M160 0v1413h397v-1081h604v-332h-1001zM340 -430l150 301h342l-289 -301h-203z" />
    <glyph glyph-name="lcommaaccent" unicode="&#x13c;" horiz-adv-x="641" 
d="M109 1413h383v-1048q0 -74 18.5 -104t64.5 -30q29 0 101 11v-242q-156 -20 -225 -20q-87 0 -153.5 24.5t-107 68.5t-61 99.5t-20.5 120.5v1120zM0 -430l150 301h342l-289 -301h-203z" />
    <glyph glyph-name="Lcaron" unicode="&#x13d;" horiz-adv-x="1276" 
d="M160 0v1413h397v-1081h604v-332h-1001zM776 684v147q30 0 55 3.5t43.5 9t32.5 16t23 19.5t15 24.5t9 26t4 29t1 29.5t-0.5 31t-0.5 30h-184v364h387v-364q0 -105 -25.5 -177t-77.5 -112.5t-120 -58t-162 -17.5z" />
    <glyph glyph-name="lcaron" unicode="&#x13e;" horiz-adv-x="1012" 
d="M129 1413h383v-1048q0 -74 18.5 -104t64.5 -30q29 0 101 11v-242q-156 -20 -225 -20q-87 0 -153.5 24.5t-107 68.5t-61 99.5t-20.5 120.5v1120zM635 684v147q30 0 55 3.5t43.5 9t32.5 16t23 19.5t15 24.5t9 26t4 29t1 29.5t-0.5 31t-0.5 30h-184v364h387v-364
q0 -105 -26 -177t-78 -112.5t-119.5 -58t-161.5 -17.5z" />
    <glyph glyph-name="Lslash" unicode="&#x141;" horiz-adv-x="1192" 
d="M557 332h604v-332h-1001v418l-88 -57v270l88 60v722h397v-450l129 88v-293l-129 -83v-343z" />
    <glyph glyph-name="lslash" unicode="&#x142;" horiz-adv-x="641" 
d="M575 231q29 0 101 11v-242q-156 -20 -225 -20q-87 0 -153.5 24.5t-107 68.5t-61 99.5t-20.5 120.5v118l-95 -61v270l95 65v728h383v-466l136 93v-293l-136 -88v-294q0 -74 18.5 -104t64.5 -30z" />
    <glyph glyph-name="Nacute" unicode="&#x143;" horiz-adv-x="1661" 
d="M702 1531l234 246h360l-338 -246h-256zM160 0v1413h385l551 -805h8v805h397v-1413h-389l-543 791h-12v-791h-397z" />
    <glyph glyph-name="nacute" unicode="&#x144;" 
d="M530 1167l234 246h360l-338 -246h-256zM127 0v1049h379v-158h12q52 78 136.5 128t197.5 50q161 0 264 -102t103 -267v-700h-385v602q0 78 -45 119t-115 41t-115 -41t-45 -119v-602h-387z" />
    <glyph glyph-name="Ncommaaccent" unicode="&#x145;" horiz-adv-x="1661" 
d="M160 0v1413h385l551 -805h8v805h397v-1413h-389l-543 791h-12v-791h-397zM509 -430l150 301h342l-289 -301h-203z" />
    <glyph glyph-name="ncommaaccent" unicode="&#x146;" 
d="M127 0v1049h379v-158h12q52 78 136.5 128t197.5 50q161 0 264 -102t103 -267v-700h-385v602q0 78 -45 119t-115 41t-115 -41t-45 -119v-602h-387zM337 -430l150 301h342l-289 -301h-203z" />
    <glyph glyph-name="Ncaron" unicode="&#x147;" horiz-adv-x="1661" 
d="M714 1525l-238 252h256l97 -129l96 129h260l-240 -252h-231zM160 0v1413h385l551 -805h8v805h397v-1413h-389l-543 791h-12v-791h-397z" />
    <glyph glyph-name="ncaron" unicode="&#x148;" 
d="M542 1161l-238 252h256l97 -129l96 129h260l-240 -252h-231zM127 0v1049h379v-158h12q52 78 136.5 128t197.5 50q161 0 264 -102t103 -267v-700h-385v602q0 78 -45 119t-115 41t-115 -41t-45 -119v-602h-387z" />
    <glyph glyph-name="Eng" unicode="&#x14a;" horiz-adv-x="1661" 
d="M967 -289v166q82 0 113.5 25t31.5 98l-543 791h-12v-791h-397v1413h385l551 -805h8v805h397v-1413q0 -62 -10.5 -106t-37 -77t-64 -53t-101 -32t-138 -16.5t-183.5 -4.5z" />
    <glyph glyph-name="eng" unicode="&#x14b;" 
d="M664 -326v236q76 -27 106 -27q33 0 48.5 26t15.5 101v592q0 78 -45 119t-115 41t-115 -41t-45 -119v-602h-387v1049h379v-158h12q52 78 136.5 128t197.5 50q161 0 264 -102t103 -267v-587q0 -184 -30 -289.5t-94.5 -152t-176.5 -46.5q-107 0 -254 49z" />
    <glyph glyph-name="Omacron" unicode="&#x14c;" horiz-adv-x="1577" 
d="M427 1535v183h717v-183h-717zM786 -20q-332 0 -526 196.5t-194 530.5t194 530.5t526 196.5t529.5 -197t197.5 -530t-197 -530t-530 -197zM788 311q146 0 232 105t86 291q0 185 -86 290t-232 105q-145 0 -229 -104.5t-84 -290.5t84 -291t229 -105z" />
    <glyph glyph-name="omacron" unicode="&#x14d;" horiz-adv-x="1239" 
d="M260 1171v183h717v-183h-717zM618 -20q-266 0 -422.5 146t-156.5 396q0 249 157 398t422 149q266 0 423 -148t157 -399t-156.5 -396.5t-423.5 -145.5zM623 264q96 0 147 68.5t51 193.5q0 124 -51 192t-147 68q-97 0 -149 -68t-52 -192q0 -125 51.5 -193.5t149.5 -68.5z
" />
    <glyph glyph-name="Ohungarumlaut" unicode="&#x150;" horiz-adv-x="1577" 
d="M457 1544l200 233h273l-219 -233h-254zM864 1544l203 233h326l-279 -233h-250zM786 -20q-332 0 -526 196.5t-194 530.5t194 530.5t526 196.5t529.5 -197t197.5 -530t-197 -530t-530 -197zM788 311q146 0 232 105t86 291q0 185 -86 290t-232 105q-145 0 -229 -104.5
t-84 -290.5t84 -291t229 -105z" />
    <glyph glyph-name="ohungarumlaut" unicode="&#x151;" horiz-adv-x="1239" 
d="M290 1180l200 233h273l-219 -233h-254zM697 1180l203 233h326l-279 -233h-250zM618 -20q-266 0 -422.5 146t-156.5 396q0 249 157 398t422 149q266 0 423 -148t157 -399t-156.5 -396.5t-423.5 -145.5zM623 264q96 0 147 68.5t51 193.5q0 124 -51 192t-147 68
q-97 0 -149 -68t-52 -192q0 -125 51.5 -193.5t149.5 -68.5z" />
    <glyph glyph-name="OE" unicode="&#x152;" horiz-adv-x="2023" 
d="M838 0q-381 0 -578 184t-197 527q0 329 196 515.5t577 186.5h1058v-332h-583v-207h542v-331h-542v-209h583v-334h-1056zM862 348h51v715h-73q-192 0 -288.5 -91.5t-96.5 -260.5q0 -177 102.5 -270t304.5 -93z" />
    <glyph glyph-name="oe" unicode="&#x153;" horiz-adv-x="1952" 
d="M1882 588q0 -58 -12 -123h-671q55 -211 314 -211q172 0 342 88v-285q-190 -77 -389 -77q-263 0 -435 133q-155 -136 -410 -136q-266 0 -423 147.5t-157 397.5t157 398.5t423 148.5q240 0 394 -123q148 123 361 123q223 0 364.5 -134t141.5 -347zM1380 836
q-155 0 -187 -168h356q-12 82 -51.5 125t-117.5 43zM623 262q92 0 146 70t54 190q0 119 -54.5 190.5t-145.5 71.5t-145 -71t-54 -191q0 -121 54 -190.5t145 -69.5z" />
    <glyph glyph-name="Racute" unicode="&#x154;" horiz-adv-x="1438" 
d="M1218 1778l-338 -246h-256l234 246h360zM1473 -2h-455l-288 510h-175v-508h-395v1413h575q311 0 464 -124.5t153 -346.5q0 -284 -248 -380zM555 1096v-314h178q125 0 175 42t50 120q0 82 -49.5 117t-175.5 35h-178z" />
    <glyph glyph-name="racute" unicode="&#x155;" horiz-adv-x="852" 
d="M287 1167l234 246h360l-338 -246h-256zM127 0v1049h371v-199q54 68 145 129t195 90v-336q-108 -21 -200 -64t-124 -87v-582h-387z" />
    <glyph glyph-name="Rcommaaccent" unicode="&#x156;" horiz-adv-x="1438" 
d="M1104 562l369 -564h-455l-288 510h-175v-508h-395v1413h575q311 0 464 -124.5t153 -346.5q0 -284 -248 -380zM555 1096v-314h178q125 0 175 42t50 120q0 82 -49.5 117t-175.5 35h-178zM395 -430l150 301h342l-289 -301h-203z" />
    <glyph glyph-name="rcommaaccent" unicode="&#x157;" horiz-adv-x="852" 
d="M127 0v1049h371v-199q54 68 145 129t195 90v-336q-108 -21 -200 -64t-124 -87v-582h-387zM0 -430l150 301h342l-289 -301h-203z" />
    <glyph glyph-name="Rcaron" unicode="&#x158;" horiz-adv-x="1438" 
d="M868 1526h-231l-238 252h256l97 -129l96 129h260zM1473 -2h-455l-288 510h-175v-508h-395v1413h575q311 0 464 -124.5t153 -346.5q0 -284 -248 -380zM555 1096v-314h178q125 0 175 42t50 120q0 82 -49.5 117t-175.5 35h-178z" />
    <glyph glyph-name="rcaron" unicode="&#x159;" horiz-adv-x="852" 
d="M299 1161l-238 252h256l97 -129l96 129h260l-240 -252h-231zM127 0v1049h371v-199q54 68 145 129t195 90v-336q-108 -21 -200 -64t-124 -87v-582h-387z" />
    <glyph glyph-name="Sacute" unicode="&#x15a;" horiz-adv-x="1243" 
d="M492 1531l234 246h360l-338 -246h-256zM602 -20q-229 0 -487 90v391h8q116 -63 248.5 -103.5t228.5 -40.5q86 0 137 33t51 88q0 45 -38.5 75.5t-99.5 49t-135 36.5t-148 46.5t-135 70.5t-99.5 117.5t-38.5 178.5q0 108 42 190.5t115.5 132.5t166.5 74.5t203 24.5
q243 0 464 -105v-352h-10q-106 63 -236 107t-221 44q-61 0 -98 -21.5t-37 -59.5q0 -30 23.5 -52t64 -37t92.5 -28t109.5 -29.5t114.5 -38t109 -56t92.5 -79.5t64 -114.5t23.5 -155.5q0 -155 -75 -264t-202.5 -161t-296.5 -52z" />
    <glyph glyph-name="sacute" unicode="&#x15b;" horiz-adv-x="1049" 
d="M395 1167l234 246h360l-338 -246h-256zM524 -23q-187 0 -434 58v295q95 -31 220.5 -55.5t193.5 -24.5q49 0 81.5 15t32.5 46q0 14 -6.5 26t-21 21.5t-29.5 17t-40.5 15t-45.5 13t-52 14t-54 14.5q-61 18 -105.5 38t-90 54t-69.5 86t-24 121q0 173 111.5 255.5t312.5 82.5
q207 0 434 -68v-290q-117 43 -236 73.5t-182 30.5q-41 0 -65.5 -13.5t-24.5 -37.5q0 -17 11.5 -30.5t39 -25t50 -19t67.5 -19.5q155 -44 224 -83q164 -94 165 -274q0 -72 -26 -131.5t-79.5 -106t-144.5 -72.5t-213 -26z" />
    <glyph glyph-name="Scedilla" unicode="&#x15e;" horiz-adv-x="1243" 
d="M1176 457q0 -202 -122 -322t-329 -147l-71 -94q95 -27 150 -72t55 -125q0 -89 -73.5 -134.5t-201.5 -45.5q-96 0 -208 24v176q115 -39 192 -39q90 0 90 54q0 13 -5 23.5t-18.5 19t-25.5 15t-36 13.5t-40.5 11.5t-49.5 12.5t-52 13l86 143q-195 14 -402 87v391h8
q116 -63 248.5 -103.5t228.5 -40.5q86 0 137 33t51 88q0 45 -38.5 75.5t-99.5 49t-135 36.5t-148 46.5t-135 70.5t-99.5 117.5t-38.5 178.5q0 108 42 190.5t115.5 132.5t166.5 74.5t203 24.5q243 0 464 -105v-352h-10q-106 63 -236 107t-221 44q-61 0 -98 -21.5t-37 -59.5
q0 -30 23.5 -52t64 -37t92.5 -28t109.5 -29.5t114.5 -38t109 -56t92.5 -79.5t64 -114.5t23.5 -155.5z" />
    <glyph glyph-name="scedilla" unicode="&#x15f;" horiz-adv-x="1049" 
d="M987 313q0 -133 -89 -222.5t-275 -108.5l-66 -88q95 -27 150 -72t55 -125q0 -89 -73.5 -134.5t-201.5 -45.5q-95 0 -208 24v176q115 -39 192 -39q90 0 90 54q0 13 -5 23.5t-18.5 19t-25.5 15t-36 13.5t-40.5 11.5t-49.5 12.5t-52 13l85 141q-151 12 -329 54v295
q95 -31 220.5 -55.5t193.5 -24.5q49 0 81.5 15t32.5 46q0 14 -6.5 26t-21 21.5t-29.5 17t-40.5 15t-45.5 13t-52 14t-54 14.5q-61 18 -105.5 38t-90 54t-69.5 86t-24 121q0 173 111.5 255.5t312.5 82.5q207 0 434 -68v-290q-117 43 -236 73.5t-182 30.5q-41 0 -65.5 -13.5
t-24.5 -37.5q0 -17 11.5 -30.5t39 -25t50 -19t67.5 -19.5q155 -44 224 -83q164 -94 165 -274z" />
    <glyph glyph-name="Scaron" unicode="&#x160;" horiz-adv-x="1243" 
d="M504 1525l-238 252h256l97 -129l96 129h260l-240 -252h-231zM602 -20q-229 0 -487 90v391h8q116 -63 248.5 -103.5t228.5 -40.5q86 0 137 33t51 88q0 45 -38.5 75.5t-99.5 49t-135 36.5t-148 46.5t-135 70.5t-99.5 117.5t-38.5 178.5q0 108 42 190.5t115.5 132.5
t166.5 74.5t203 24.5q243 0 464 -105v-352h-10q-106 63 -236 107t-221 44q-61 0 -98 -21.5t-37 -59.5q0 -30 23.5 -52t64 -37t92.5 -28t109.5 -29.5t114.5 -38t109 -56t92.5 -79.5t64 -114.5t23.5 -155.5q0 -155 -75 -264t-202.5 -161t-296.5 -52z" />
    <glyph glyph-name="scaron" unicode="&#x161;" horiz-adv-x="1049" 
d="M407 1161l-238 252h256l97 -129l96 129h260l-240 -252h-231zM524 -23q-187 0 -434 58v295q95 -31 220.5 -55.5t193.5 -24.5q49 0 81.5 15t32.5 46q0 14 -6.5 26t-21 21.5t-29.5 17t-40.5 15t-45.5 13t-52 14t-54 14.5q-61 18 -105.5 38t-90 54t-69.5 86t-24 121
q0 173 111.5 255.5t312.5 82.5q207 0 434 -68v-290q-117 43 -236 73.5t-182 30.5q-41 0 -65.5 -13.5t-24.5 -37.5q0 -17 11.5 -30.5t39 -25t50 -19t67.5 -19.5q155 -44 224 -83q164 -94 165 -274q0 -72 -26 -131.5t-79.5 -106t-144.5 -72.5t-213 -26z" />
    <glyph glyph-name="uni0162" unicode="&#x162;" horiz-adv-x="1241" 
d="M817 0h-83l-80 -106q95 -27 150 -72t55 -125q0 -89 -73.5 -134.5t-201.5 -45.5q-96 0 -208 24v176q115 -39 192 -39q90 0 90 54q0 13 -5 23.5t-18.5 19t-25.5 15t-36 13.5t-40.5 11.5t-49.5 12.5t-52 13l96 160h-107v1081h-389v332h1179v-332h-393v-1081z" />
    <glyph glyph-name="uni0163" unicode="&#x163;" horiz-adv-x="791" 
d="M533 -106q95 -27 150 -72t55 -125q0 -89 -73.5 -134.5t-201.5 -45.5q-95 0 -208 24v176q115 -39 192 -39q90 0 90 54q0 13 -5 23.5t-18.5 19t-25.5 15t-36 13.5t-40.5 11.5t-49.5 12.5t-52 13l90 150q-120 25 -181 107t-61 196v543h-138v213h138v200l385 82v-282h192
v-213h-192v-471q0 -75 18 -104.5t64 -29.5q29 0 100 11v-242q-77 -9 -123 -14z" />
    <glyph glyph-name="Tcaron" unicode="&#x164;" horiz-adv-x="1241" 
d="M504 1525l-238 252h256l97 -129l96 129h260l-240 -252h-231zM420 0v1081h-389v332h1179v-332h-393v-1081h-397z" />
    <glyph glyph-name="tcaron" unicode="&#x165;" horiz-adv-x="791" 
d="M670 1901h387v-365q0 -105 -26 -177t-78 -112.5t-119.5 -58t-161.5 -17.5v148q30 0 55 3.5t43.5 9t32.5 16t23 19.5t15 24t9 26t4 29.5t1 29t-0.5 31t-0.5 29.5h-184v365zM543 1331v-282h192v-213h-192v-471q0 -75 18 -104.5t64 -29.5q29 0 100 11v-242
q-156 -20 -225 -20q-87 0 -153.5 24.5t-107 68.5t-61 99.5t-20.5 120.5v543h-138v213h138v200z" />
    <glyph glyph-name="Tbar" unicode="&#x166;" horiz-adv-x="1241" 
d="M1210 1081h-393v-260h274v-228h-274v-593h-397v593h-269v228h269v260h-389v332h1179v-332z" />
    <glyph glyph-name="tbar" unicode="&#x167;" horiz-adv-x="791" 
d="M735 836h-192v-230h145v-164h-145v-77q0 -75 18 -104.5t64 -29.5q29 0 100 11v-242q-156 -20 -225 -20q-87 0 -153.5 24.5t-107 68.5t-61 99.5t-20.5 120.5v149h-146v164h146v230h-138v213h138v200l385 82v-282h192v-213z" />
    <glyph glyph-name="Umacron" unicode="&#x16a;" horiz-adv-x="1477" 
d="M378 1535v183h717v-183h-717zM733 -20q-309 0 -457.5 150t-148.5 429v854h397v-866q0 -99 54 -152t155 -53q106 0 163.5 53.5t57.5 151.5v866h398v-844q0 -285 -151.5 -437t-467.5 -152z" />
    <glyph glyph-name="umacron" unicode="&#x16b;" 
d="M301 1171v183h717v-183h-717zM469 -20q-161 0 -264 102t-103 266v701h385v-603q0 -77 45 -118t115 -41t115 41t45 118v603h387v-1049h-379v158h-12q-51 -79 -135.5 -128.5t-198.5 -49.5z" />
    <glyph glyph-name="Uring" unicode="&#x16e;" horiz-adv-x="1477" 
d="M739 1480q-98 0 -166 69t-68 167q0 96 68.5 163.5t165.5 67.5t165 -67t68 -164t-68.5 -166.5t-164.5 -69.5zM739 1611q42 0 72 30.5t30 72.5q0 43 -29.5 72.5t-72.5 29.5t-72.5 -29.5t-29.5 -72.5t29.5 -73t72.5 -30zM733 -20q-309 0 -457.5 150t-148.5 429v854h397v-866
q0 -99 54 -152t155 -53q106 0 163.5 53.5t57.5 151.5v866h398v-844q0 -285 -151.5 -437t-467.5 -152z" />
    <glyph glyph-name="uring" unicode="&#x16f;" 
d="M662 1116q-98 0 -166 69t-68 167q0 96 68.5 163.5t165.5 67.5t165 -67t68 -164t-68.5 -166.5t-164.5 -69.5zM662 1247q42 0 72 30.5t30 72.5q0 43 -29.5 72.5t-72.5 29.5t-72.5 -29.5t-29.5 -72.5t29.5 -73t72.5 -30zM469 -20q-161 0 -264 102t-103 266v701h385v-603
q0 -77 45 -118t115 -41t115 41t45 118v603h387v-1049h-379v158h-12q-51 -79 -135.5 -128.5t-198.5 -49.5z" />
    <glyph glyph-name="Uhungarumlaut" unicode="&#x170;" horiz-adv-x="1477" 
d="M408 1544l200 233h273l-219 -233h-254zM815 1544l203 233h326l-279 -233h-250zM733 -20q-309 0 -457.5 150t-148.5 429v854h397v-866q0 -99 54 -152t155 -53q106 0 163.5 53.5t57.5 151.5v866h398v-844q0 -285 -151.5 -437t-467.5 -152z" />
    <glyph glyph-name="uhungarumlaut" unicode="&#x171;" 
d="M331 1180l200 233h273l-219 -233h-254zM738 1180l203 233h326l-279 -233h-250zM469 -20q-161 0 -264 102t-103 266v701h385v-603q0 -77 45 -118t115 -41t115 41t45 118v603h387v-1049h-379v158h-12q-51 -79 -135.5 -128.5t-198.5 -49.5z" />
    <glyph glyph-name="Uogonek" unicode="&#x172;" horiz-adv-x="1477" 
d="M954 1413h398v-844q0 -501 -450 -576q-99 -66 -150.5 -132.5t-51.5 -112.5q0 -24 14 -37.5t40 -13.5q73 0 159 82v-221q-99 -62 -211 -62q-99 0 -159 51.5t-60 135.5q0 68 44.5 145.5t135.5 153.5q-273 17 -404.5 165.5t-131.5 411.5v854h397v-866q0 -99 54 -152t155 -53
q106 0 163.5 53.5t57.5 151.5v866z" />
    <glyph glyph-name="uogonek" unicode="&#x173;" 
d="M1194 0q-105 -67 -159 -136t-54 -116q0 -24 14 -37.5t40 -13.5q73 0 159 82v-221q-99 -62 -211 -62q-99 0 -159 51.5t-60 135.5q0 72 50 154.5t152 162.5h-151v158h-12q-51 -79 -135.5 -128.5t-198.5 -49.5q-161 0 -264 102t-103 266v701h385v-603q0 -77 45 -118t115 -41
t115 41t45 118v603h387v-1049z" />
    <glyph glyph-name="Wcircumflex" unicode="&#x174;" horiz-adv-x="2107" 
d="M696 1518l238 260h231l240 -260h-281l-75 116l-76 -116h-277zM307 0l-266 1413h412l170 -1089h16l201 1089h432l201 -1089h14l170 1089h411l-268 -1413h-579l-170 946l-162 -946h-582z" />
    <glyph glyph-name="wcircumflex" unicode="&#x175;" horiz-adv-x="1847" 
d="M571 1153l238 260h231l240 -260h-260l-96 137l-97 -137h-256zM301 -8l-297 1057h408l155 -715l181 715h350l178 -721l162 721h407l-301 -1049h-493l-131 549l-125 -557h-494z" />
    <glyph glyph-name="Ycircumflex" unicode="&#x176;" horiz-adv-x="1456" 
d="M373 1513l237 261h232l239 -261h-280l-76 117l-76 -117h-276zM532 0v549l-536 864h444l299 -500l277 500h444l-536 -864v-549h-392z" />
    <glyph glyph-name="ycircumflex" unicode="&#x177;" horiz-adv-x="1180" 
d="M237 1153l238 260h231l240 -260h-260l-96 137l-97 -137h-256zM305 -377q-66 0 -176 10v277q80 -12 139 -12q64 0 95.5 19.5t31.5 66.5q0 25 -14 63l-393 1002h411l176 -611h21l182 611h414l-457 -1141q-65 -162 -164.5 -223.5t-265.5 -61.5z" />
    <glyph glyph-name="Ydieresis" unicode="&#x178;" horiz-adv-x="1456" 
d="M383 1518v256h260v-256h-260zM809 1518v256h260v-256h-260zM532 0v549l-536 864h444l299 -500l277 500h444l-536 -864v-549h-392z" />
    <glyph glyph-name="Zacute" unicode="&#x179;" horiz-adv-x="1354" 
d="M524 1528l234 246h360l-338 -246h-256zM66 0v248l667 833h-622v332h1159v-268l-631 -813h631v-332h-1204z" />
    <glyph glyph-name="zacute" unicode="&#x17a;" horiz-adv-x="1108" 
d="M1018 1413l-338 -246h-256l234 246h360zM1028 1049v-279l-473 -473h473v-297h-948v266l507 488h-511v295h952z" />
    <glyph glyph-name="Zdotaccent" unicode="&#x17b;" horiz-adv-x="1354" 
d="M520 1518v256h260v-256h-260zM66 0v248l667 833h-622v332h1159v-268l-631 -813h631v-332h-1204z" />
    <glyph glyph-name="zdotaccent" unicode="&#x17c;" horiz-adv-x="1108" 
d="M747 1413v-256h-391v256h391zM1028 1049v-279l-473 -473h473v-297h-948v266l507 488h-511v295h952z" />
    <glyph glyph-name="Zcaron" unicode="&#x17d;" horiz-adv-x="1354" 
d="M535 1522l-238 252h276l76 -109l76 109h281l-240 -252h-231zM66 0v248l667 833h-622v332h1159v-268l-631 -813h631v-332h-1204z" />
    <glyph glyph-name="zcaron" unicode="&#x17e;" horiz-adv-x="1108" 
d="M667 1161h-231l-238 252h256l97 -129l96 129h260zM1028 1049v-279l-473 -473h473v-297h-948v266l507 488h-511v295h952z" />
    <glyph glyph-name="florin" unicode="&#x192;" horiz-adv-x="936" 
d="M88 -457v307q106 0 148.5 34.5t42.5 115.5v836h-160v213h164v71q0 137 86.5 225.5t255.5 88.5q61 0 225 -21v-242q-61 11 -100 11q-62 0 -78.5 -27t-16.5 -106h195v-213h-184v-836q0 -121 -43 -211t-122 -142.5t-182 -78t-231 -25.5z" />
    <glyph glyph-name="uni01CD" unicode="&#x1cd;" horiz-adv-x="1554" 
d="M892 1525h-231l-238 252h256l97 -129l96 129h260zM1114 0l-78 254h-518l-78 -254h-430l504 1413h526l504 -1413h-430zM612 561h330l-160 522h-10z" />
    <glyph glyph-name="uni01CE" unicode="&#x1ce;" horiz-adv-x="1192" 
d="M706 1161h-231l-238 252h256l97 -129l96 129h260zM1165 276h6v-231q-150 -68 -258 -68q-139 0 -189 115q-116 -66 -195.5 -90.5t-153.5 -24.5q-149 0 -239.5 76t-90.5 211q0 64 20.5 115.5t61.5 88t91 64t120 49t136.5 37.5t151.5 34l72 15v13q0 123 -163 123
q-141 0 -408 -94v290q261 70 446 70q224 0 341.5 -109t117.5 -350v-221q0 -36 1 -54t5.5 -42t16 -34.5t30.5 -10.5q31 0 80 28zM422 307q0 -44 23 -66t63 -22q74 0 190 65v196h-1l-1 -1h-1h-1h-1l-1 -1h-1h-1h-1l-1 -1h-1h-1l-1 -1h-1h-1h-1l-1 -1q-152 -41 -195 -65
q-63 -37 -64 -103z" />
    <glyph glyph-name="uni01CF" unicode="&#x1cf;" horiz-adv-x="717" 
d="M241 1525l-238 252h256l97 -129l96 129h260l-240 -252h-231zM160 0v1413h397v-1413h-397z" />
    <glyph glyph-name="uni01D0" unicode="&#x1d0;" horiz-adv-x="641" 
d="M205 1161l-238 252h256l97 -129l96 129h260l-240 -252h-231zM127 0v1049h387v-1049h-387z" />
    <glyph glyph-name="uni01D1" unicode="&#x1d1;" horiz-adv-x="1577" 
d="M671 1525l-238 252h256l97 -129l96 129h260l-240 -252h-231zM786 -20q-332 0 -526 196.5t-194 530.5t194 530.5t526 196.5t529.5 -197t197.5 -530t-197 -530t-530 -197zM788 311q146 0 232 105t86 291q0 185 -86 290t-232 105q-145 0 -229 -104.5t-84 -290.5t84 -291
t229 -105z" />
    <glyph glyph-name="uni01D2" unicode="&#x1d2;" horiz-adv-x="1239" 
d="M504 1161l-238 252h256l97 -129l96 129h260l-240 -252h-231zM618 -20q-266 0 -422.5 146t-156.5 396q0 249 157 398t422 149q266 0 423 -148t157 -399t-156.5 -396.5t-423.5 -145.5zM623 264q96 0 147 68.5t51 193.5q0 124 -51 192t-147 68q-97 0 -149 -68t-52 -192
q0 -125 51.5 -193.5t149.5 -68.5z" />
    <glyph glyph-name="uni01D3" unicode="&#x1d3;" horiz-adv-x="1477" 
d="M622 1525l-238 252h256l97 -129l96 129h260l-240 -252h-231zM733 -20q-309 0 -457.5 150t-148.5 429v854h397v-866q0 -99 54 -152t155 -53q106 0 163.5 53.5t57.5 151.5v866h398v-844q0 -285 -151.5 -437t-467.5 -152z" />
    <glyph glyph-name="uni01D4" unicode="&#x1d4;" 
d="M545 1161l-238 252h256l97 -129l96 129h260l-240 -252h-231zM469 -20q-161 0 -264 102t-103 266v701h385v-603q0 -77 45 -118t115 -41t115 41t45 118v603h387v-1049h-379v158h-12q-51 -79 -135.5 -128.5t-198.5 -49.5z" />
    <glyph glyph-name="uni01D5" unicode="&#x1d5;" horiz-adv-x="1477" 
d="M378 1899v183h717v-183h-717zM356 1521v256h301v-256h-301zM821 1521v256h301v-256h-301zM733 -20q-309 0 -457.5 150t-148.5 429v854h397v-866q0 -99 54 -152t155 -53q106 0 163.5 53.5t57.5 151.5v866h398v-844q0 -285 -151.5 -437t-467.5 -152z" />
    <glyph glyph-name="uni01D6" unicode="&#x1d6;" 
d="M301 1535v183h717v-183h-717zM279 1157v256h301v-256h-301zM744 1157v256h301v-256h-301zM469 -20q-161 0 -264 102t-103 266v701h385v-603q0 -77 45 -118t115 -41t115 41t45 118v603h387v-1049h-379v158h-12q-51 -79 -135.5 -128.5t-198.5 -49.5z" />
    <glyph glyph-name="uni01D7" unicode="&#x1d7;" horiz-adv-x="1477" 
d="M610 1895l234 246h360l-338 -246h-256zM356 1521v256h301v-256h-301zM821 1521v256h301v-256h-301zM733 -20q-309 0 -457.5 150t-148.5 429v854h397v-866q0 -99 54 -152t155 -53q106 0 163.5 53.5t57.5 151.5v866h398v-844q0 -285 -151.5 -437t-467.5 -152z" />
    <glyph glyph-name="uni01D8" unicode="&#x1d8;" 
d="M533 1531l234 246h360l-338 -246h-256zM279 1157v256h301v-256h-301zM744 1157v256h301v-256h-301zM469 -20q-161 0 -264 102t-103 266v701h385v-603q0 -77 45 -118t115 -41t115 41t45 118v603h387v-1049h-379v158h-12q-51 -79 -135.5 -128.5t-198.5 -49.5z" />
    <glyph glyph-name="uni01D9" unicode="&#x1d9;" horiz-adv-x="1477" 
d="M622 1889l-238 252h256l97 -129l96 129h260l-240 -252h-231zM356 1521v256h301v-256h-301zM821 1521v256h301v-256h-301zM733 -20q-309 0 -457.5 150t-148.5 429v854h397v-866q0 -99 54 -152t155 -53q106 0 163.5 53.5t57.5 151.5v866h398v-844q0 -285 -151.5 -437
t-467.5 -152z" />
    <glyph glyph-name="uni01DA" unicode="&#x1da;" 
d="M545 1525l-238 252h256l97 -129l96 129h260l-240 -252h-231zM279 1157v256h301v-256h-301zM744 1157v256h301v-256h-301zM469 -20q-161 0 -264 102t-103 266v701h385v-603q0 -77 45 -118t115 -41t115 41t45 118v603h387v-1049h-379v158h-12q-51 -79 -135.5 -128.5
t-198.5 -49.5z" />
    <glyph glyph-name="uni01DB" unicode="&#x1db;" horiz-adv-x="1477" 
d="M610 1895l-338 246h360l234 -246h-256zM356 1521v256h301v-256h-301zM821 1521v256h301v-256h-301zM733 -20q-309 0 -457.5 150t-148.5 429v854h397v-866q0 -99 54 -152t155 -53q106 0 163.5 53.5t57.5 151.5v866h398v-844q0 -285 -151.5 -437t-467.5 -152z" />
    <glyph glyph-name="uni01DC" unicode="&#x1dc;" 
d="M533 1531l-338 246h360l234 -246h-256zM279 1157v256h301v-256h-301zM744 1157v256h301v-256h-301zM469 -20q-161 0 -264 102t-103 266v701h385v-603q0 -77 45 -118t115 -41t115 41t45 118v603h387v-1049h-379v158h-12q-51 -79 -135.5 -128.5t-198.5 -49.5z" />
    <glyph glyph-name="Scommaaccent" unicode="&#x218;" horiz-adv-x="1243" 
d="M602 -20q-229 0 -487 90v391h8q116 -63 248.5 -103.5t228.5 -40.5q86 0 137 33t51 88q0 45 -38.5 75.5t-99.5 49t-135 36.5t-148 46.5t-135 70.5t-99.5 117.5t-38.5 178.5q0 108 42 190.5t115.5 132.5t166.5 74.5t203 24.5q243 0 464 -105v-352h-10q-106 63 -236 107
t-221 44q-61 0 -98 -21.5t-37 -59.5q0 -30 23.5 -52t64 -37t92.5 -28t109.5 -29.5t114.5 -38t109 -56t92.5 -79.5t64 -114.5t23.5 -155.5q0 -155 -75 -264t-202.5 -161t-296.5 -52zM299 -430l150 301h342l-289 -301h-203z" />
    <glyph glyph-name="scommaaccent" unicode="&#x219;" horiz-adv-x="1049" 
d="M524 -23q-187 0 -434 58v295q95 -31 220.5 -55.5t193.5 -24.5q49 0 81.5 15t32.5 46q0 14 -6.5 26t-21 21.5t-29.5 17t-40.5 15t-45.5 13t-52 14t-54 14.5q-61 18 -105.5 38t-90 54t-69.5 86t-24 121q0 173 111.5 255.5t312.5 82.5q207 0 434 -68v-290q-117 43 -236 73.5
t-182 30.5q-41 0 -65.5 -13.5t-24.5 -37.5q0 -17 11.5 -30.5t39 -25t50 -19t67.5 -19.5q155 -44 224 -83q164 -94 165 -274q0 -72 -26 -131.5t-79.5 -106t-144.5 -72.5t-213 -26zM202 -430l150 301h342l-289 -301h-203z" />
    <glyph glyph-name="uni021A" unicode="&#x21a;" horiz-adv-x="1241" 
d="M420 0v1081h-389v332h1179v-332h-393v-1081h-397zM299 -430l150 301h342l-289 -301h-203z" />
    <glyph glyph-name="uni021B" unicode="&#x21b;" horiz-adv-x="791" 
d="M735 836h-192v-471q0 -75 18 -104.5t64 -29.5q29 0 100 11v-242q-156 -20 -225 -20q-87 0 -153.5 24.5t-107 68.5t-61 99.5t-20.5 120.5v543h-138v213h138v200l385 82v-282h192v-213zM178 -430l150 301h342l-289 -301h-203z" />
    <glyph glyph-name="uni0237" unicode="&#x237;" horiz-adv-x="641" 
d="M160 -375q-99 0 -199 31v276q42 -10 68 -10q49 0 73.5 35t24.5 117v975h387v-1057q0 -95 -27 -167t-76 -115t-112 -64t-139 -21z" />
    <glyph glyph-name="circumflex" unicode="&#x2c6;" horiz-adv-x="745" 
d="M18 1153l238 260h231l240 -260h-260l-96 137l-97 -137h-256z" />
    <glyph glyph-name="caron" unicode="&#x2c7;" horiz-adv-x="750" 
d="M258 1161l-238 252h256l97 -129l96 129h260l-240 -252h-231z" />
    <glyph glyph-name="breve" unicode="&#x2d8;" horiz-adv-x="780" 
d="M387 1143q-152 0 -239 72.5t-87 197.5h220q0 -127 104 -127q107 0 107 127h229q0 -124 -91 -197t-243 -73z" />
    <glyph glyph-name="dotaccent" unicode="&#x2d9;" horiz-adv-x="502" 
d="M121 1108v256h260v-256h-260z" />
    <glyph glyph-name="ring" unicode="&#x2da;" horiz-adv-x="594" 
d="M297 1116q-98 0 -166 69t-68 167q0 96 68.5 163.5t165.5 67.5t165 -67t68 -164t-68.5 -166.5t-164.5 -69.5zM297 1247q42 0 72 30.5t30 72.5q0 43 -29.5 72.5t-72.5 29.5t-72.5 -29.5t-29.5 -72.5t29.5 -73t72.5 -30z" />
    <glyph glyph-name="ogonek" unicode="&#x2db;" horiz-adv-x="575" 
d="M270 -504q-99 0 -159 51.5t-60 135.5q0 78 59 167.5t179 176.5l192 -27q-105 -67 -159 -136t-54 -116q0 -24 14 -37.5t40 -13.5q73 0 159 82v-221q-99 -62 -211 -62z" />
    <glyph glyph-name="tilde" unicode="&#x2dc;" horiz-adv-x="899" 
d="M215 1147l-172 92q100 193 270 193q55 0 108.5 -20t95.5 -40t69 -20q53 0 100 84l170 -93q-99 -188 -264 -188q-56 0 -110.5 20t-96.5 40t-68 20q-55 0 -102 -88z" />
    <glyph glyph-name="hungarumlaut" unicode="&#x2dd;" horiz-adv-x="987" 
d="M29 1130l200 234h273l-219 -234h-254zM436 1130l203 234h326l-279 -234h-250z" />
    <glyph glyph-name="gravecomb" unicode="&#x300;" horiz-adv-x="0" 
d="M-274 1167l-338 246h360l234 -246h-256z" />
    <glyph glyph-name="acutecomb" unicode="&#x301;" horiz-adv-x="0" 
d="M-611 1167l234 246h360l-338 -246h-256z" />
    <glyph glyph-name="uni0302" unicode="&#x302;" horiz-adv-x="0" 
d="M-727 1153l238 260h231l240 -260h-260l-96 137l-97 -137h-256z" />
    <glyph glyph-name="tildecomb" unicode="&#x303;" horiz-adv-x="0" 
d="M-684 1147l-172 92q100 193 270 193q55 0 108.5 -20t95.5 -40t69 -20q53 0 100 84l170 -93q-99 -188 -264 -188q-56 0 -110.5 20t-96.5 40t-68 20q-55 0 -102 -88z" />
    <glyph glyph-name="uni0304" unicode="&#x304;" horiz-adv-x="0" 
d="M-779 1171v183h717v-183h-717z" />
    <glyph glyph-name="uni0306" unicode="&#x306;" horiz-adv-x="0" 
d="M-393 1143q-152 0 -239 72.5t-87 197.5h220q0 -127 104 -127q107 0 107 127h229q0 -124 -91 -197t-243 -73z" />
    <glyph glyph-name="uni0307" unicode="&#x307;" horiz-adv-x="0" 
d="M-447 1157v256h391v-256h-391z" />
    <glyph glyph-name="uni0308" unicode="&#x308;" horiz-adv-x="0" 
d="M-887 1157v256h301v-256h-301zM-422 1157v256h301v-256h-301z" />
    <glyph glyph-name="uni030A" unicode="&#x30a;" horiz-adv-x="0" 
d="M-297 1116q-98 0 -166 69t-68 167q0 96 68.5 163.5t165.5 67.5t165 -67t68 -164t-68.5 -166.5t-164.5 -69.5zM-297 1247q42 0 72 30.5t30 72.5q0 43 -29.5 72.5t-72.5 29.5t-72.5 -29.5t-29.5 -72.5t29.5 -73t72.5 -30z" />
    <glyph glyph-name="uni030B" unicode="&#x30b;" horiz-adv-x="0" 
d="M-958 1180l200 233h273l-219 -233h-254zM-551 1180l203 233h326l-279 -233h-250z" />
    <glyph glyph-name="uni030C" unicode="&#x30c;" horiz-adv-x="0" 
d="M-492 1161l-238 252h256l97 -129l96 129h260l-240 -252h-231z" />
    <glyph glyph-name="uni0312" unicode="&#x312;" horiz-adv-x="0" 
d="M-541 1159l289 250h203l-150 -250h-342z" />
    <glyph glyph-name="uni0326" unicode="&#x326;" horiz-adv-x="0" 
d="M-500 -430l150 301h342l-289 -301h-203z" />
    <glyph glyph-name="uni0327" unicode="&#x327;" horiz-adv-x="0" 
d="M-326 -483q-96 0 -208 24v176q115 -39 192 -39q90 0 90 54q0 13 -5 23.5t-18.5 19t-25.5 15t-36 13.5t-40.5 11.5t-49.5 12.5t-52 13l96 160h207l-80 -106q95 -27 150 -72t55 -125q0 -89 -73.5 -134.5t-201.5 -45.5z" />
    <glyph glyph-name="uni0328" unicode="&#x328;" horiz-adv-x="0" 
d="M-305 -504q-99 0 -159 51.5t-60 135.5q0 78 59 167.5t179 176.5l192 -27q-105 -67 -159 -136t-54 -116q0 -24 14 -37.5t40 -13.5q73 0 159 82v-221q-99 -62 -211 -62z" />
    <glyph glyph-name="uni0335" unicode="&#x335;" horiz-adv-x="0" 
d="M-794 508v164h676v-164h-676z" />
    <glyph glyph-name="uni0336" unicode="&#x336;" horiz-adv-x="0" 
d="M-1595 487v164h1474v-164h-1474z" />
    <glyph glyph-name="uni0337" unicode="&#x337;" horiz-adv-x="0" 
d="M-657 348v270l614 420v-293z" />
    <glyph glyph-name="uni0338" unicode="&#x338;" horiz-adv-x="0" 
d="M-956 139l-72 70l987 1014l72 -70z" />
    <glyph glyph-name="pi" unicode="&#x3c0;" horiz-adv-x="1233" 
d="M1010 -16q-129 0 -206 78.5t-77 240.5v428h-268v-731h-307v731h-82v268h1026v-268h-82v-369q0 -122 84 -122q38 0 106 28v-248q-100 -36 -194 -36z" />
    <glyph glyph-name="Omega" unicode="&#x3c9;" horiz-adv-x="1688" 
d="M100 0v305h168q-85 77 -124.5 202.5t-39.5 240.5q0 139 61.5 263t163 210t236 136t277.5 50q146 0 282 -52t237 -141t161.5 -216t60.5 -269q0 -113 -38 -234t-115 -208h157v-287h-620v274q125 0 213 104.5t88 283.5q0 204 -117 321t-307 117q-192 0 -308 -120t-116 -323
q0 -82 20.5 -149t52.5 -109.5t73 -71.5t80 -41t75 -12v-274h-621z" />
    <glyph glyph-name="Wgrave" unicode="&#x1e80;" horiz-adv-x="2107" 
d="M922 1532l-338 246h360l234 -246h-256zM307 0l-266 1413h412l170 -1089h16l201 1089h432l201 -1089h14l170 1089h411l-268 -1413h-579l-170 946l-162 -946h-582z" />
    <glyph glyph-name="wgrave" unicode="&#x1e81;" horiz-adv-x="1847" 
d="M795 1167l-338 246h360l234 -246h-256zM301 -8l-297 1057h408l155 -715l181 715h350l178 -721l162 721h407l-301 -1049h-493l-131 549l-125 -557h-494z" />
    <glyph glyph-name="Wacute" unicode="&#x1e82;" horiz-adv-x="2107" 
d="M924 1532l233 246h361l-338 -246h-256zM307 0l-266 1413h412l170 -1089h16l201 1089h432l201 -1089h14l170 1089h411l-268 -1413h-579l-170 946l-162 -946h-582z" />
    <glyph glyph-name="wacute" unicode="&#x1e83;" horiz-adv-x="1847" 
d="M795 1167l234 246h360l-338 -246h-256zM301 -8l-297 1057h408l155 -715l181 715h350l178 -721l162 721h407l-301 -1049h-493l-131 549l-125 -557h-494z" />
    <glyph glyph-name="Wdieresis" unicode="&#x1e84;" horiz-adv-x="2107" 
d="M707 1522v256h260v-256h-260zM1133 1522v256h260v-256h-260zM307 0l-266 1413h412l170 -1089h16l201 1089h432l201 -1089h14l170 1089h411l-268 -1413h-579l-170 946l-162 -946h-582z" />
    <glyph glyph-name="wdieresis" unicode="&#x1e85;" horiz-adv-x="1847" 
d="M541 1157v256h301v-256h-301zM1006 1157v256h301v-256h-301zM301 -8l-297 1057h408l155 -715l181 715h350l178 -721l162 721h407l-301 -1049h-493l-131 549l-125 -557h-494z" />
    <glyph glyph-name="Ygrave" unicode="&#x1ef2;" horiz-adv-x="1456" 
d="M598 1528l-338 246h361l233 -246h-256zM532 0v549l-536 864h444l299 -500l277 500h444l-536 -864v-549h-392z" />
    <glyph glyph-name="ygrave" unicode="&#x1ef3;" horiz-adv-x="1180" 
d="M461 1167l-338 246h360l234 -246h-256zM305 -377q-66 0 -176 10v277q80 -12 139 -12q64 0 95.5 19.5t31.5 66.5q0 25 -14 63l-393 1002h411l176 -611h21l182 611h414l-457 -1141q-65 -162 -164.5 -223.5t-265.5 -61.5z" />
    <glyph glyph-name="endash" unicode="&#x2013;" horiz-adv-x="1116" 
d="M123 358v328h870v-328h-870z" />
    <glyph glyph-name="emdash" unicode="&#x2014;" horiz-adv-x="2040" 
d="M-4 358v328h2048v-328h-2048z" />
    <glyph glyph-name="quoteleft" unicode="&#x2018;" horiz-adv-x="641" 
d="M119 684v365q0 104 25.5 176t77.5 112.5t120 58t162 17.5v-147q-30 0 -55 -3.5t-43.5 -9t-32.5 -16t-23 -19.5t-15 -24t-9 -26t-4 -29.5t-1 -29t0.5 -31t0.5 -29.5h184v-365h-387z" />
    <glyph glyph-name="quoteright" unicode="&#x2019;" horiz-adv-x="641" 
d="M137 684v147q30 0 55 3.5t43.5 9t32.5 16t23 19.5t15 24.5t9 26t4 29t1 29.5t-0.5 31t-0.5 30h-184v364h387v-364q0 -105 -25.5 -177t-77.5 -112.5t-120 -58t-162 -17.5z" />
    <glyph glyph-name="quotesinglbase" unicode="&#x201a;" horiz-adv-x="641" 
d="M137 -365v148q30 0 55 3.5t43.5 9t32.5 16t23 19.5t15 24t9 26t4 29.5t1 29t-0.5 31t-0.5 29.5h-184v365h387v-365q0 -105 -25.5 -177t-77.5 -112.5t-120 -58t-162 -17.5z" />
    <glyph glyph-name="quotedblleft" unicode="&#x201c;" horiz-adv-x="1196" 
d="M119 684v365q0 104 25.5 176t77.5 112.5t120 58t162 17.5v-147q-30 0 -55 -3.5t-43.5 -9t-32.5 -16t-23 -19.5t-15 -24t-9 -26t-4 -29.5t-1 -29t0.5 -31t0.5 -29.5h184v-365h-387zM674 684v365q0 104 25.5 176t77.5 112.5t120 58t162 17.5v-147q-30 0 -55 -3.5t-43.5 -9
t-32.5 -16t-23 -19.5t-15 -24t-9 -26t-4 -29.5t-1 -29t0.5 -31t0.5 -29.5h184v-365h-387z" />
    <glyph glyph-name="quotedblright" unicode="&#x201d;" horiz-adv-x="1196" 
d="M137 684v147q30 0 55 3.5t43.5 9t32.5 16t23 19.5t15 24.5t9 26t4 29t1 29.5t-0.5 31t-0.5 30h-184v364h387v-364q0 -105 -25.5 -177t-77.5 -112.5t-120 -58t-162 -17.5zM692 684v147q30 0 55 3.5t43.5 9t32.5 16t23 19.5t15 24.5t9 26t4 29t1 29.5t-0.5 31t-0.5 30h-184
v364h387v-364q0 -105 -25.5 -177t-77.5 -112.5t-120 -58t-162 -17.5z" />
    <glyph glyph-name="quotedblbase" unicode="&#x201e;" horiz-adv-x="1196" 
d="M137 -365v148q30 0 55 3.5t43.5 9t32.5 16t23 19.5t15 24t9 26t4 29.5t1 29t-0.5 31t-0.5 29.5h-184v365h387v-365q0 -105 -25.5 -177t-77.5 -112.5t-120 -58t-162 -17.5zM692 -365v148q30 0 55 3.5t43.5 9t32.5 16t23 19.5t15 24t9 26t4 29.5t1 29t-0.5 31t-0.5 29.5
h-184v365h387v-365q0 -105 -25.5 -177t-77.5 -112.5t-120 -58t-162 -17.5z" />
    <glyph glyph-name="dagger" unicode="&#x2020;" horiz-adv-x="918" 
d="M285 -205v948h-222v353h222v317h348v-317h221v-353h-221v-948h-348z" />
    <glyph glyph-name="daggerdbl" unicode="&#x2021;" horiz-adv-x="1032" 
d="M342 -205v318h-221v352h221v278h-221v353h221v317h348v-317h221v-353h-221v-278h221v-352h-221v-318h-348z" />
    <glyph glyph-name="bullet" unicode="&#x2022;" horiz-adv-x="1180" 
d="M592 18q-138 0 -254.5 68t-184 184.5t-67.5 253.5t67.5 253.5t184 184.5t254.5 68q135 0 250.5 -67.5t183.5 -184.5t68 -254t-68 -253.5t-183.5 -184.5t-250.5 -68z" />
    <glyph glyph-name="twodotenleader" unicode="&#x2025;" horiz-adv-x="1389" 
d="M174 0v367h389v-367h-389zM825 0v367h389v-367h-389z" />
    <glyph glyph-name="ellipsis" unicode="&#x2026;" horiz-adv-x="2040" 
d="M174 0v367h389v-367h-389zM825 0v367h389v-367h-389zM1477 0v367h389v-367h-389z" />
    <glyph glyph-name="guilsinglleft" unicode="&#x2039;" horiz-adv-x="657" 
d="M520 113l-518 397l518 399v-288l-166 -111l166 -109v-288z" />
    <glyph glyph-name="guilsinglright" unicode="&#x203a;" horiz-adv-x="659" 
d="M135 113v288l166 109l-166 111v288l518 -399z" />
    <glyph glyph-name="fraction" unicode="&#x2044;" horiz-adv-x="549" 
d="M-332 0l846 1413h365l-859 -1413h-352z" />
    <glyph glyph-name="Euro" unicode="&#x20ac;" horiz-adv-x="1411" 
d="M915 -23q-114 0 -209 27t-162 72.5t-118.5 111t-83 137t-49.5 156.5h-232l82 154h129q-2 24 -2 72v20h-170l90 164h95q15 88 44 164.5t80.5 148t120 122t168 80.5t220.5 30q223 0 372 -101l-131 -319q-124 90 -241 90q-203 0 -240 -215h428l-68 -164h-381v-20
q0 -50 2 -72h342l-63 -154h-246q17 -94 84.5 -141t165.5 -47q89 0 183 38.5t165 106.5v-360q-149 -101 -375 -101z" />
    <glyph glyph-name="trademark" unicode="&#x2122;" horiz-adv-x="1610" 
d="M244 774v459h-138v180h492v-180h-135v-459h-219zM664 774v639h313l70 -344l59 344h315v-639h-200v498l-117 -498h-117l-125 498v-498h-198z" />
    <glyph glyph-name="arrowleft" unicode="&#x2190;" horiz-adv-x="2423" 
d="M1210 -27l-1179 666l1179 653v-493h1141v-328h-1141v-498z" />
    <glyph glyph-name="arrowright" unicode="&#x2192;" horiz-adv-x="2423" 
d="M1212 -27v498h-1140v328h1140v493l1180 -653z" />
    <glyph glyph-name="partialdiff" unicode="&#x2202;" horiz-adv-x="1333" 
d="M590 -12q-241 0 -376.5 137t-135.5 360q0 128 46.5 239.5t123 187.5t176.5 119.5t207 43.5q102 0 182 -39.5t113 -111.5h8q0 119 -109.5 197.5t-298.5 78.5q-119 0 -252 -33v246q126 21 234 21q342 0 535.5 -176.5t193.5 -514.5q0 -153 -41.5 -288t-120.5 -240t-204 -166
t-281 -61zM614 299q122 0 200.5 85t78.5 218q0 110 -54 161.5t-145 51.5q-127 0 -207.5 -88t-80.5 -213q0 -103 57 -159t151 -56z" />
    <glyph glyph-name="uni2206" unicode="&#x2206;" horiz-adv-x="1556" 
d="M924 1413l596 -1413h-1483l596 1413h291zM768 1059l-290 -772h601l-291 772h-20z" />
    <glyph glyph-name="product" unicode="&#x220f;" horiz-adv-x="1454" 
d="M240 0v1106h-164v307h1302v-307h-164v-1106h-307v1106h-360v-1106h-307z" />
    <glyph glyph-name="summation" unicode="&#x2211;" horiz-adv-x="1378" 
d="M80 0v164l553 543l-553 540v166h1184v-307h-652l455 -399l-455 -400h652v-307h-1184z" />
    <glyph glyph-name="minus" unicode="&#x2212;" horiz-adv-x="1319" 
d="M186 373v291h947v-291h-947z" />
    <glyph glyph-name="radical" unicode="&#x221a;" horiz-adv-x="1458" 
d="M500 -233l-277 720h-168v312h398l180 -588l495 1227l293 -95l-671 -1576h-250z" />
    <glyph glyph-name="infinity" unicode="&#x221e;" horiz-adv-x="1700" 
d="M475 254q-159 0 -261.5 108.5t-102.5 270.5t102.5 270.5t261.5 108.5q182 0 373 -174q191 174 375 174q159 0 261.5 -108.5t102.5 -270.5t-102.5 -270.5t-261.5 -108.5q-185 0 -375 174q-190 -174 -373 -174zM498 530q33 0 68 23.5t96 79.5q-61 55 -96 78.5t-68 23.5
q-47 0 -79 -27.5t-32 -74.5q0 -48 32 -75.5t79 -27.5zM1200 530q47 0 79 27.5t32 75.5q0 47 -32 74.5t-79 27.5q-33 0 -68 -23.5t-96 -78.5q61 -56 96 -79.5t68 -23.5z" />
    <glyph glyph-name="integral" unicode="&#x222b;" horiz-adv-x="803" 
d="M53 -369v308q33 0 59 4.5t44.5 13t31.5 22t21.5 31t13 39.5t6.5 48.5t2 57.5v66v39v776q0 170 115 284t287 114q52 0 121 -15v-311q-38 14 -76 14q-63 0 -101 -44t-38 -115v-904q0 -237 -110 -332.5t-376 -95.5z" />
    <glyph glyph-name="approxequal" unicode="&#x2248;" horiz-adv-x="1309" 
d="M139 606q0 212 79 323t228 111q49 0 93.5 -15t77 -36t63 -42.5t64.5 -36.5t69 -15q96 0 96 145h262q0 -211 -79 -322.5t-228 -111.5q-59 0 -113 23t-88.5 50t-79 50t-85.5 23q-15 0 -29 -4.5t-31 -18t-27 -45t-10 -78.5h-262zM139 96q0 212 79 323t228 111q49 0 93.5 -15
t77 -36t63 -42.5t64.5 -36.5t69 -15q96 0 96 145h262q0 -211 -79 -322.5t-228 -111.5q-59 0 -113 23t-88.5 50t-79 50t-85.5 23q-15 0 -29 -4.5t-31 -18t-27 -45t-10 -78.5h-262z" />
    <glyph glyph-name="notequal" unicode="&#x2260;" horiz-adv-x="1421" 
d="M166 -164l168 289h-197v313h377l117 201h-494v313h676l172 297h281l-170 -297h186v-313h-364l-115 -201h479v-313h-657l-164 -289h-295z" />
    <glyph glyph-name="lessequal" unicode="&#x2264;" horiz-adv-x="1423" 
d="M1268 389l-1202 596l1202 596v-340l-555 -256l555 -256v-340zM94 0v287h1174v-287h-1174z" />
    <glyph glyph-name="greaterequal" unicode="&#x2265;" horiz-adv-x="1423" 
d="M156 389v340l555 256l-555 256v340l1202 -596zM156 0v287h1173v-287h-1173z" />
    <glyph glyph-name="lozenge" unicode="&#x25ca;" horiz-adv-x="1184" 
d="M463 0l-418 717l418 717h264l412 -717l-412 -717h-264zM590 340l188 377l-188 377l-184 -377z" />
    <glyph glyph-name="uniF8FF" unicode="&#xf8ff;" horiz-adv-x="1716" 
d="M858 -61q-158 0 -301 61t-247 165t-165 247t-61 301t61 301t165 247t247 165t301 61t301 -61t247 -165t165 -247t61 -301t-61 -301t-165 -247t-247 -165t-301 -61zM858 10q191 0 353 94t256 256t94 353q0 143 -55.5 273t-149.5 224t-224.5 149.5t-273.5 55.5t-273 -55.5
t-224 -149.5t-149.5 -224t-55.5 -273t55.5 -273.5t149.5 -224.5t224 -149.5t273 -55.5zM455 410q-15 0 -25 9.5t-10 24.5v537q0 15 10.5 26t24.5 11q15 0 26 -11t11 -26v-537q0 -15 -11 -24.5t-26 -9.5zM858 410q-15 0 -25 9.5t-10 24.5v537q0 15 10 26t25 11t25 -11t10 -26
v-537q0 -15 -9.5 -24.5t-25.5 -9.5zM1260 410q-16 0 -23 10l-270 268q-6 10 -6 25q0 18 6 24l270 269q9 12 23 12q13 0 24.5 -11.5t11.5 -23.5q0 -16 -10 -27l-244 -243l244 -244q10 -10 10 -27q0 -12 -11 -22t-25 -10zM590 678q-16 0 -25.5 9.5t-9.5 25.5q0 15 9.5 25
t25.5 10h133q15 0 26 -10t11 -25t-11 -25t-26 -10h-133z" />
    <glyph glyph-name="i.loclTRK" horiz-adv-x="641" 
d="M125 1157v256h391v-256h-391zM127 0v1049h387v-1049h-387z" />
    <glyph glyph-name="T_T" horiz-adv-x="2324" 
d="M2294 1413v-332h-393v-1081h-398v1081h-686v-1081h-397v1081h-389v332h2263z" />
    <glyph glyph-name="f_t" horiz-adv-x="1513" 
d="M1458 836h-192v-471q0 -75 18 -104.5t64 -29.5q28 0 100 11v-242q-156 -20 -225 -20q-87 0 -153.5 24.5t-107 68.5t-61 99.5t-20.5 120.5v543h-322v-836h-383v836h-164v213h164v71q0 137 86.5 225.5t255.5 88.5q63 0 225 -21v-242q-60 11 -100 11q-46 0 -65 -30t-19 -103
h322v200l385 82v-282h192v-213z" />
    <glyph glyph-name="t_t" horiz-adv-x="1489" 
d="M1434 836h-193v-471q0 -74 18 -104t64 -30q29 0 100 11v-242q-154 -20 -225 -20q-169 0 -255.5 88.5t-86.5 224.5v543h-313v-471q0 -75 18 -104.5t64 -29.5q29 0 100 11v-242q-156 -20 -225 -20q-87 0 -153.5 24.5t-107 68.5t-61 99.5t-20.5 120.5v543h-138v213h138v200
l385 82v-282h313v200l385 82v-282h193v-213z" />
    <glyph glyph-name="uni0338.case" horiz-adv-x="0" 
d="M-1194 12l-166 158l1231 1231l164 -158z" />
    </font>
</defs>
</svg>
